  0
SECTION
  2
HEADER
  9
$ACADVER
  1
AC1015
  9
$ACADMAINTVER
 70
     6
  9
$DWGCODEPAGE
  3
ANSI_1252
  9
$INSBASE
 10
0.0
 20
0.0
 30
0.0
  9
$EXTMIN
 10
0.0
 20
0.0
 30
0.0
  9
$EXTMAX
 10
296.9999999999999
 20
210.0
 30
0.0
  9
$LIMMIN
 10
0.0
 20
0.0
  9
$LIMMAX
 10
12.0
 20
9.0
  9
$ORTHOMODE
 70
     0
  9
$REGENMODE
 70
     1
  9
$FILLMODE
 70
     1
  9
$QTEXTMODE
 70
     0
  9
$MIRRTEXT
 70
     1
  9
$LTSCALE
 40
1.0
  9
$ATTMODE
 70
     1
  9
$TEXTSIZE
 40
0.2
  9
$TRACEWID
 40
0.05
  9
$TEXTSTYLE
  7
Standard
  9
$CLAYER
  8
0
  9
$CELTYPE
  6
ByLayer
  9
$CECOLOR
 62
   256
  9
$CELTSCALE
 40
1.0
  9
$DISPSILH
 70
     0
  9
$DIMSCALE
 40
1.0
  9
$DIMASZ
 40
0.18
  9
$DIMEXO
 40
0.0625
  9
$DIMDLI
 40
0.38
  9
$DIMRND
 40
0.0
  9
$DIMDLE
 40
0.0
  9
$DIMEXE
 40
0.18
  9
$DIMTP
 40
0.0
  9
$DIMTM
 40
0.0
  9
$DIMTXT
 40
0.18
  9
$DIMCEN
 40
0.09
  9
$DIMTSZ
 40
0.0
  9
$DIMTOL
 70
     0
  9
$DIMLIM
 70
     0
  9
$DIMTIH
 70
     1
  9
$DIMTOH
 70
     1
  9
$DIMSE1
 70
     0
  9
$DIMSE2
 70
     0
  9
$DIMTAD
 70
     0
  9
$DIMZIN
 70
     0
  9
$DIMBLK
  1

  9
$DIMASO
 70
     1
  9
$DIMSHO
 70
     1
  9
$DIMPOST
  1

  9
$DIMAPOST
  1

  9
$DIMALT
 70
     0
  9
$DIMALTD
 70
     2
  9
$DIMALTF
 40
25.4
  9
$DIMLFAC
 40
1.0
  9
$DIMTOFL
 70
     0
  9
$DIMTVP
 40
0.0
  9
$DIMTIX
 70
     0
  9
$DIMSOXD
 70
     0
  9
$DIMSAH
 70
     0
  9
$DIMBLK1
  1

  9
$DIMBLK2
  1

  9
$DIMSTYLE
  2
Standard
  9
$DIMCLRD
 70
     0
  9
$DIMCLRE
 70
     0
  9
$DIMCLRT
 70
     0
  9
$DIMTFAC
 40
1.0
  9
$DIMGAP
 40
0.09
  9
$DIMJUST
 70
     0
  9
$DIMSD1
 70
     0
  9
$DIMSD2
 70
     0
  9
$DIMTOLJ
 70
     1
  9
$DIMTZIN
 70
     0
  9
$DIMALTZ
 70
     0
  9
$DIMALTTZ
 70
     0
  9
$DIMUPT
 70
     0
  9
$DIMDEC
 70
     4
  9
$DIMTDEC
 70
     4
  9
$DIMALTU
 70
     2
  9
$DIMALTTD
 70
     2
  9
$DIMTXSTY
  7
Standard
  9
$DIMAUNIT
 70
     0
  9
$DIMADEC
 70
     0
  9
$DIMALTRND
 40
0.0
  9
$DIMAZIN
 70
     0
  9
$DIMDSEP
 70
    46
  9
$DIMATFIT
 70
     3
  9
$DIMFRAC
 70
     0
  9
$DIMLDRBLK
  1

  9
$DIMLUNIT
 70
     2
  9
$DIMLWD
 70
    -2
  9
$DIMLWE
 70
    -2
  9
$DIMTMOVE
 70
     0
  9
$LUNITS
 70
     2
  9
$LUPREC
 70
     4
  9
$SKETCHINC
 40
0.1
  9
$FILLETRAD
 40
0.5
  9
$AUNITS
 70
     0
  9
$AUPREC
 70
     0
  9
$MENU
  1
.
  9
$ELEVATION
 40
0.0
  9
$PELEVATION
 40
0.0
  9
$THICKNESS
 40
0.0
  9
$LIMCHECK
 70
     0
  9
$CHAMFERA
 40
0.5
  9
$CHAMFERB
 40
0.5
  9
$CHAMFERC
 40
1.0
  9
$CHAMFERD
 40
0.0
  9
$SKPOLY
 70
     0
  9
$TDCREATE
 40
2456997.616615995
  9
$TDUCREATE
 40
2456997.574949329
  9
$TDUPDATE
 40
2456997.616616354
  9
$TDUUPDATE
 40
2456997.574949687
  9
$TDINDWG
 40
0.0000000116
  9
$TDUSRTIMER
 40
0.0000000116
  9
$USRTIMER
 70
     1
  9
$ANGBASE
 50
0.0
  9
$ANGDIR
 70
     0
  9
$PDMODE
 70
     0
  9
$PDSIZE
 40
0.0
  9
$PLINEWID
 40
0.0
  9
$SPLFRAME
 70
     0
  9
$SPLINETYPE
 70
     6
  9
$SPLINESEGS
 70
     8
  9
$HANDSEED
  5
7C0
  9
$SURFTAB1
 70
     6
  9
$SURFTAB2
 70
     6
  9
$SURFTYPE
 70
     6
  9
$SURFU
 70
     6
  9
$SURFV
 70
     6
  9
$UCSBASE
  2

  9
$UCSNAME
  2

  9
$UCSORG
 10
0.0
 20
0.0
 30
0.0
  9
$UCSXDIR
 10
1.0
 20
0.0
 30
0.0
  9
$UCSYDIR
 10
0.0
 20
1.0
 30
0.0
  9
$UCSORTHOREF
  2

  9
$UCSORTHOVIEW
 70
     0
  9
$UCSORGTOP
 10
0.0
 20
0.0
 30
0.0
  9
$UCSORGBOTTOM
 10
0.0
 20
0.0
 30
0.0
  9
$UCSORGLEFT
 10
0.0
 20
0.0
 30
0.0
  9
$UCSORGRIGHT
 10
0.0
 20
0.0
 30
0.0
  9
$UCSORGFRONT
 10
0.0
 20
0.0
 30
0.0
  9
$UCSORGBACK
 10
0.0
 20
0.0
 30
0.0
  9
$PUCSBASE
  2

  9
$PUCSNAME
  2

  9
$PUCSORG
 10
0.0
 20
0.0
 30
0.0
  9
$PUCSXDIR
 10
1.0
 20
0.0
 30
0.0
  9
$PUCSYDIR
 10
0.0
 20
1.0
 30
0.0
  9
$PUCSORTHOREF
  2

  9
$PUCSORTHOVIEW
 70
     0
  9
$PUCSORGTOP
 10
0.0
 20
0.0
 30
0.0
  9
$PUCSORGBOTTOM
 10
0.0
 20
0.0
 30
0.0
  9
$PUCSORGLEFT
 10
0.0
 20
0.0
 30
0.0
  9
$PUCSORGRIGHT
 10
0.0
 20
0.0
 30
0.0
  9
$PUCSORGFRONT
 10
0.0
 20
0.0
 30
0.0
  9
$PUCSORGBACK
 10
0.0
 20
0.0
 30
0.0
  9
$USERI1
 70
     0
  9
$USERI2
 70
     0
  9
$USERI3
 70
     0
  9
$USERI4
 70
     0
  9
$USERI5
 70
     0
  9
$USERR1
 40
18.1
  9
$USERR2
 40
0.0
  9
$USERR3
 40
0.0
  9
$USERR4
 40
0.0
  9
$USERR5
 40
0.0
  9
$WORLDVIEW
 70
     1
  9
$SHADEDGE
 70
     3
  9
$SHADEDIF
 70
    70
  9
$TILEMODE
 70
     1
  9
$MAXACTVP
 70
    64
  9
$PINSBASE
 10
0.0
 20
0.0
 30
0.0
  9
$PLIMCHECK
 70
     0
  9
$PEXTMIN
 10
1.00000000000000E+20
 20
1.00000000000000E+20
 30
1.00000000000000E+20
  9
$PEXTMAX
 10
-1.00000000000000E+20
 20
-1.00000000000000E+20
 30
-1.00000000000000E+20
  9
$PLIMMIN
 10
0.0
 20
0.0
  9
$PLIMMAX
 10
12.0
 20
9.0
  9
$UNITMODE
 70
     0
  9
$VISRETAIN
 70
     1
  9
$PLINEGEN
 70
     0
  9
$PSLTSCALE
 70
     1
  9
$TREEDEPTH
 70
  3020
  9
$CMLSTYLE
  2
Standard
  9
$CMLJUST
 70
     0
  9
$CMLSCALE
 40
1.0
  9
$PROXYGRAPHICS
 70
     1
  9
$MEASUREMENT
 70
     1
  9
$CELWEIGHT
370
    -1
  9
$ENDCAPS
280
     0
  9
$JOINSTYLE
280
     0
  9
$LWDISPLAY
290
     0
  9
$INSUNITS
 70
     4
  9
$HYPERLINKBASE
  1

  9
$STYLESHEET
  1

  9
$XEDIT
290
     1
  9
$CEPSNTYPE
380
     0
  9
$PSTYLEMODE
290
     1
  9
$FINGERPRINTGUID
  2
{64F9305B-0176-4B69-922D-586F55D9B21A}
  9
$VERSIONGUID
  2
{FAEB1C32-E019-11D5-929B-00C0DF256EC4}
  9
$EXTNAMES
290
     1
  9
$PSVPSCALE
 40
0.0
  9
$OLESTARTUP
290
     0
  0
ENDSEC
  0
SECTION
  2
CLASSES
  0
CLASS
  1
ACDBDICTIONARYWDFLT
  2
AcDbDictionaryWithDefault
  3
ObjectDBX Classes
 90
        0
280
     0
281
     0
  0
CLASS
  1
VISUALSTYLE
  2
AcDbVisualStyle
  3
ObjectDBX Classes
 90
     4095
280
     0
281
     0
  0
CLASS
  1
MATERIAL
  2
AcDbMaterial
  3
ObjectDBX Classes
 90
     1153
280
     0
281
     0
  0
CLASS
  1
DICTIONARYVAR
  2
AcDbDictionaryVar
  3
ObjectDBX Classes
 90
        0
280
     0
281
     0
  0
CLASS
  1
ACDBPLACEHOLDER
  2
AcDbPlaceHolder
  3
ObjectDBX Classes
 90
        0
280
     0
281
     0
  0
CLASS
  1
LAYOUT
  2
AcDbLayout
  3
ObjectDBX Classes
 90
        0
280
     0
281
     0
  0
ENDSEC
  0
SECTION
  2
TABLES
  0
TABLE
  2
VPORT
  5
8
330
0
100
AcDbSymbolTable
 70
     1
  0
VPORT
  5
29
330
8
100
AcDbSymbolTableRecord
100
AcDbViewportTableRecord
  2
*Active
 70
     0
 10
0.0
 20
0.0
 11
1.0
 21
1.0
 12
148.4999999999999
 22
105.0
 13
0.0
 23
0.0
 14
0.5
 24
0.5
 15
0.5
 25
0.5
 16
0.0
 26
0.0
 36
1.0
 17
0.0
 27
0.0
 37
0.0
 40
231.0
 41
1.60267857142857
 42
50.0
 43
0.0
 44
0.0
 50
0.0
 51
0.0
 71
     0
 72
   100
 73
     1
 74
     3
 75
     0
 76
     0
 77
     0
 78
     0
281
     0
 65
     1
110
0.0
120
0.0
130
0.0
111
1.0
121
0.0
131
0.0
112
0.0
122
1.0
132
0.0
 79
     0
146
0.0
  0
ENDTAB
  0
TABLE
  2
LTYPE
  5
5
330
0
100
AcDbSymbolTable
 70
    10
  0
LTYPE
  5
14
330
5
100
AcDbSymbolTableRecord
100
AcDbLinetypeTableRecord
  2
ByBlock
 70
     0
  3

 72
    65
 73
     0
 40
0.0
  0
LTYPE
  5
15
330
5
100
AcDbSymbolTableRecord
100
AcDbLinetypeTableRecord
  2
ByLayer
 70
     0
  3

 72
    65
 73
     0
 40
0.0
  0
LTYPE
  5
16
330
5
100
AcDbSymbolTableRecord
100
AcDbLinetypeTableRecord
  2
Continuous
 70
     0
  3
Solid line
 72
    65
 73
     0
 40
0.0
  0
LTYPE
  5
3F
330
5
100
AcDbSymbolTableRecord
100
AcDbLinetypeTableRecord
  2
DASHED
 70
     0
  3
Dashed
 72
    65
 73
     2
 40
15.0
 49
7.0
 74
     0
 49
-8.0
 74
     0
  0
LTYPE
  5
40
330
5
100
AcDbSymbolTableRecord
100
AcDbLinetypeTableRecord
  2
DOTTED
 70
     0
  3
Dotted
 72
    65
 73
     2
 40
1.0
 49
0.0
 74
     0
 49
-1.0
 74
     0
  0
LTYPE
  5
41
330
5
100
AcDbSymbolTableRecord
100
AcDbLinetypeTableRecord
  2
DOT_CENTER
 70
     0
  3
Dot_Center
 72
    65
 73
     4
 40
14.0
 49
12.0
 74
     0
 49
-1.0
 74
     0
 49
0.0
 74
     0
 49
-1.0
 74
     0
  0
LTYPE
  5
42
330
5
100
AcDbSymbolTableRecord
100
AcDbLinetypeTableRecord
  2
LONG_DASHED
 70
     0
  3
Long_Dashed
 72
    65
 73
     2
 40
15.0
 49
10.0
 74
     0
 49
-5.0
 74
     0
  0
LTYPE
  5
43
330
5
100
AcDbSymbolTableRecord
100
AcDbLinetypeTableRecord
  2
DASH_CENTER
 70
     0
  3
Dash_Center
 72
    65
 73
     4
 40
14.0
 49
11.0
 74
     0
 49
-1.0
 74
     0
 49
1.0
 74
     0
 49
-1.0
 74
     0
  0
LTYPE
  5
44
330
5
100
AcDbSymbolTableRecord
100
AcDbLinetypeTableRecord
  2
PHANTOM
 70
     0
  3
Phantom
 72
    65
 73
     6
 40
13.0
 49
10.0
 74
     0
 49
-1.0
 74
     0
 49
0.0
 74
     0
 49
-1.0
 74
     0
 49
0.0
 74
     0
 49
-1.0
 74
     0
  0
LTYPE
  5
45
330
5
100
AcDbSymbolTableRecord
100
AcDbLinetypeTableRecord
  2
CENTER_DASH_DASH
 70
     0
  3
Center_Dash_Dash
 72
    65
 73
     6
 40
14.0
 49
9.0
 74
     0
 49
-1.0
 74
     0
 49
1.0
 74
     0
 49
-1.0
 74
     0
 49
1.0
 74
     0
 49
-1.0
 74
     0
  0
LTYPE
  5
46
330
5
100
AcDbSymbolTableRecord
100
AcDbLinetypeTableRecord
  2
CHAIN
 70
     0
  3
CHAIN
 72
    65
 73
     4
 40
4.0
 49
1.0
 74
     0
 49
-1.0
 74
     0
 49
1.0
 74
     0
 49
-1.0
 74
     0
  0
LTYPE
  5
47
330
5
100
AcDbSymbolTableRecord
100
AcDbLinetypeTableRecord
  2
DASHED_SPACE
 70
     0
  3
DASHED_SPACE
 72
    65
 73
     2
 40
2.0
 49
1.0
 74
     0
 49
-1.0
 74
     0
  0
ENDTAB
  0
TABLE
  2
LAYER
  5
2
330
0
100
AcDbSymbolTable
 70
     7
  0
LAYER
  5
10
330
2
100
AcDbSymbolTableRecord
100
AcDbLayerTableRecord
  2
0
 70
     0
 62
     7
  6
Continuous
370
    -3
390
F
  0
LAYER
  5
48
330
2
100
AcDbSymbolTableRecord
100
AcDbLayerTableRecord
  2
1
 70
     0
 62
     7
  6
Continuous
370
    -3
390
F
  0
LAYER
  5
49
330
2
100
AcDbSymbolTableRecord
100
AcDbLayerTableRecord
  2
Bemaßungen_TC_020513_DIN_
 70
     0
 62
     7
  6
Continuous
370
    -3
390
F
  0
LAYER
  5
4A
330
2
100
AcDbSymbolTableRecord
100
AcDbLayerTableRecord
  2
Mittellinie_TC_020513_DIN_
 70
     0
 62
     7
  6
Continuous
370
    -3
390
F
  0
LAYER
  5
4B
330
2
100
AcDbSymbolTableRecord
100
AcDbLayerTableRecord
  2
Mittelpunktmarkierung_TC_020513_DIN_
 70
     0
 62
     7
  6
Continuous
370
    -3
390
F
  0
LAYER
  5
4C
330
2
100
AcDbSymbolTableRecord
100
AcDbLayerTableRecord
  2
Sichtbare_Kanten_TC_020513_DIN_
 70
     0
 62
     7
  6
Continuous
370
    -3
390
F
  0
LAYER
  5
4D
330
2
100
AcDbSymbolTableRecord
100
AcDbLayerTableRecord
  2
Stich_1-Linien_TC_020513_DIN_
 70
     0
 62
     7
  6
Continuous
370
    -3
390
F
  0
ENDTAB
  0
TABLE
  2
STYLE
  5
3
330
0
100
AcDbSymbolTable
 70
     4
  0
STYLE
  5
11
330
3
100
AcDbSymbolTableRecord
100
AcDbTextStyleTableRecord
  2
Standard
 70
     0
 40
0.0
 41
1.0
 50
0.0
 71
     0
 42
0.2
  3
txt
  4

  0
STYLE
  5
96
330
3
100
AcDbSymbolTableRecord
100
AcDbTextStyleTableRecord
  2
CONVERTER_11
 70
     0
 40
0.0
 41
0.9
 50
0.0
 71
     0
 42
0.2
  3
txt.shx
  4

  0
STYLE
  5
99
330
3
100
AcDbSymbolTableRecord
100
AcDbTextStyleTableRecord
  2
CONVERTER_12
 70
     0
 40
0.0
 41
1.035
 50
0.0
 71
     0
 42
0.2
  3
txt.shx
  4

  0
STYLE
  5
72E
330
3
100
AcDbSymbolTableRecord
100
AcDbTextStyleTableRecord
  2
CONVERTER_13
 70
     0
 40
0.0
 41
0.95
 50
0.0
 71
     0
 42
0.2
  3
simplex.shx
  4

  0
ENDTAB
  0
TABLE
  2
VIEW
  5
6
330
0
100
AcDbSymbolTable
 70
     0
  0
ENDTAB
  0
TABLE
  2
UCS
  5
7
330
0
100
AcDbSymbolTable
 70
     0
  0
ENDTAB
  0
TABLE
  2
APPID
  5
9
330
0
100
AcDbSymbolTable
 70
     1
  0
APPID
  5
12
330
9
100
AcDbSymbolTableRecord
100
AcDbRegAppTableRecord
  2
ACAD
 70
     0
  0
ENDTAB
  0
TABLE
  2
DIMSTYLE
  5
A
330
0
100
AcDbSymbolTable
 70
    10
100
AcDbDimStyleTable
  0
DIMSTYLE
105
27
330
A
100
AcDbSymbolTableRecord
100
AcDbDimStyleTableRecord
  2
Standard
 70
     0
178
     0
340
11
  0
DIMSTYLE
105
739
102
{ACAD_REACTORS
330
73A
102
}
330
A
100
AcDbSymbolTableRecord
100
AcDbDimStyleTableRecord
  2
ME10_DIM_10
 70
     0
 41
3.0
 42
0.5
 44
1.0
 73
     0
 74
     0
 77
     1
 78
     8
140
3.0
147
2.0
172
     1
173
     1
174
     1
175
     1
176
     2
177
     2
271
     2
178
     4
271
     2
340
72E
  0
DIMSTYLE
105
744
102
{ACAD_REACTORS
330
745
102
}
330
A
100
AcDbSymbolTableRecord
100
AcDbDimStyleTableRecord
  2
ME10_DIM_11
 70
     0
 41
3.0
 42
0.5
 44
1.0
 73
     0
 74
     0
 77
     1
 78
     8
140
3.0
147
2.0
172
     1
173
     1
174
     1
175
     1
176
     2
177
     2
271
     2
178
     4
271
     2
340
72E
  0
DIMSTYLE
105
74F
102
{ACAD_REACTORS
330
750
102
}
330
A
100
AcDbSymbolTableRecord
100
AcDbDimStyleTableRecord
  2
ME10_DIM_12
 70
     0
 41
3.0
 42
0.5
 44
1.0
 73
     0
 74
     0
 77
     1
 78
     8
140
3.0
147
2.0
172
     1
173
     1
174
     1
175
     1
176
     2
177
     2
271
     2
178
     4
271
     2
340
72E
  0
DIMSTYLE
105
75A
102
{ACAD_REACTORS
330
75B
102
}
330
A
100
AcDbSymbolTableRecord
100
AcDbDimStyleTableRecord
  2
ME10_DIM_13
 70
     0
 41
3.0
 42
0.5
 44
1.0
 73
     0
 74
     0
 77
     1
 78
     8
140
3.0
147
2.0
172
     1
173
     1
174
     1
175
     1
176
     2
177
     2
271
     2
178
     4
271
     2
340
72E
  0
DIMSTYLE
105
765
102
{ACAD_REACTORS
330
766
102
}
330
A
100
AcDbSymbolTableRecord
100
AcDbDimStyleTableRecord
  2
ME10_DIM_14
 70
     0
 41
3.0
 42
0.5
 44
1.0
 73
     0
 74
     0
 77
     1
 78
     8
140
3.0
147
2.0
172
     1
173
     1
174
     1
175
     1
176
     2
177
     2
271
     2
178
     4
271
     2
340
72E
  0
DIMSTYLE
105
770
102
{ACAD_REACTORS
330
771
102
}
330
A
100
AcDbSymbolTableRecord
100
AcDbDimStyleTableRecord
  2
ME10_DIM_15
 70
     0
 41
3.0
 42
0.5
 44
1.0
 73
     0
 74
     0
 77
     1
 78
     8
140
3.0
147
2.0
172
     1
173
     1
174
     1
175
     1
176
     2
177
     2
271
     2
178
     4
271
     2
340
72E
  0
DIMSTYLE
105
77B
102
{ACAD_REACTORS
330
77C
102
}
330
A
100
AcDbSymbolTableRecord
100
AcDbDimStyleTableRecord
  2
ME10_DIM_16
 70
     0
 41
3.0
 42
0.5
 44
1.0
 73
     0
 74
     0
 77
     1
 78
     8
140
3.0
147
2.0
172
     1
173
     1
174
     1
175
     1
176
     2
177
     2
271
     2
178
     4
271
     2
340
72E
  0
DIMSTYLE
105
786
102
{ACAD_REACTORS
330
787
102
}
330
A
100
AcDbSymbolTableRecord
100
AcDbDimStyleTableRecord
  2
ME10_DIM_17
 70
     0
 41
3.0
 42
0.5
 44
1.0
 73
     0
 74
     0
 77
     1
 78
     8
140
3.0
147
2.0
172
     1
173
     1
174
     1
175
     1
176
     2
177
     2
271
     2
178
     4
271
     2
340
72E
  0
DIMSTYLE
105
793
102
{ACAD_REACTORS
330
794
102
}
330
A
100
AcDbSymbolTableRecord
100
AcDbDimStyleTableRecord
  2
ME10_DIM_18
 70
     0
 41
3.0
 42
0.5
 44
1.0
 73
     0
 74
     0
 77
     1
 78
     8
140
3.0
147
2.0
172
     1
173
     1
174
     1
175
     1
176
     2
177
     2
271
     2
178
     4
271
     2
340
72E
  0
ENDTAB
  0
TABLE
  2
BLOCK_RECORD
  5
1
330
0
100
AcDbSymbolTable
 70
    11
  0
BLOCK_RECORD
  5
1F
330
1
100
AcDbSymbolTableRecord
100
AcDbBlockTableRecord
  2
*Model_Space
340
22
  0
BLOCK_RECORD
  5
1B
330
1
100
AcDbSymbolTableRecord
100
AcDbBlockTableRecord
  2
*Paper_Space
340
1E
  0
BLOCK_RECORD
  5
23
330
1
100
AcDbSymbolTableRecord
100
AcDbBlockTableRecord
  2
*Paper_Space0
340
26
  0
BLOCK_RECORD
  5
4E
330
1
100
AcDbSymbolTableRecord
100
AcDbBlockTableRecord
  2
_formato_A4
340
0
102
{BLKREFS
331
51
102
}
  0
BLOCK_RECORD
  5
730
330
1
100
AcDbSymbolTableRecord
100
AcDbBlockTableRecord
  2
*D2
340
0
  0
BLOCK_RECORD
  5
73B
330
1
100
AcDbSymbolTableRecord
100
AcDbBlockTableRecord
  2
*D3
340
0
  0
BLOCK_RECORD
  5
746
330
1
100
AcDbSymbolTableRecord
100
AcDbBlockTableRecord
  2
*D4
340
0
  0
BLOCK_RECORD
  5
751
330
1
100
AcDbSymbolTableRecord
100
AcDbBlockTableRecord
  2
*D5
340
0
  0
BLOCK_RECORD
  5
75C
330
1
100
AcDbSymbolTableRecord
100
AcDbBlockTableRecord
  2
*D6
340
0
  0
BLOCK_RECORD
  5
767
330
1
100
AcDbSymbolTableRecord
100
AcDbBlockTableRecord
  2
*D7
340
0
  0
BLOCK_RECORD
  5
772
330
1
100
AcDbSymbolTableRecord
100
AcDbBlockTableRecord
  2
*D8
340
0
  0
BLOCK_RECORD
  5
77D
330
1
100
AcDbSymbolTableRecord
100
AcDbBlockTableRecord
  2
*D9
340
0
  0
BLOCK_RECORD
  5
788
330
1
100
AcDbSymbolTableRecord
100
AcDbBlockTableRecord
  2
*D10
340
0
  0
ENDTAB
  0
ENDSEC
  0
SECTION
  2
BLOCKS
  0
BLOCK
  5
20
330
1F
100
AcDbEntity
  8
0
100
AcDbBlockBegin
  2
*Model_Space
 70
     0
 10
0.0
 20
0.0
 30
0.0
  3
*Model_Space
  1

  0
ENDBLK
  5
21
330
1F
100
AcDbEntity
  8
0
100
AcDbBlockEnd
  0
BLOCK
  5
1C
330
1B
100
AcDbEntity
 67
     1
  8
0
100
AcDbBlockBegin
  2
*Paper_Space
 70
     0
 10
0.0
 20
0.0
 30
0.0
  3
*Paper_Space
  1

  0
ENDBLK
  5
1D
330
1B
100
AcDbEntity
 67
     1
  8
0
100
AcDbBlockEnd
  0
BLOCK
  5
24
330
23
100
AcDbEntity
  8
0
100
AcDbBlockBegin
  2
*Paper_Space0
 70
     0
 10
0.0
 20
0.0
 30
0.0
  3
*Paper_Space0
  1

  0
ENDBLK
  5
25
330
23
100
AcDbEntity
  8
0
100
AcDbBlockEnd
  0
BLOCK
  5
4F
330
4E
100
AcDbEntity
  8
0
100
AcDbBlockBegin
  2
_formato_A4
 70
     0
 10
296.9999999999999
 20
0.0
 30
0.0
  3
_formato_A4
  1

  0
LINE
  5
52
330
4E
100
AcDbEntity
  8
1
  6
Continuous
 62
     7
100
AcDbLine
 10
108.0
 20
9.99999999999986
 30
0.0
 11
138.0
 21
9.99999999999986
 31
0.0
  0
LINE
  5
53
330
4E
100
AcDbEntity
  8
1
  6
Continuous
 62
     7
100
AcDbLine
 10
108.0
 20
14.9999999999999
 30
0.0
 11
138.0
 21
14.9999999999999
 31
0.0
  0
LINE
  5
54
330
4E
100
AcDbEntity
  8
1
  6
Continuous
 62
     7
100
AcDbLine
 10
247.9999999999999
 20
20.0
 30
0.0
 11
247.9999999999999
 21
5.0
 31
0.0
  0
LINE
  5
55
330
4E
100
AcDbEntity
  8
1
  6
Continuous
 62
     7
100
AcDbLine
 10
265.352601377485
 20
20.0
 30
0.0
 11
265.352601377485
 21
5.0
 31
0.0
  0
LINE
  5
56
330
4E
100
AcDbEntity
  8
1
  6
Continuous
 62
     7
100
AcDbLine
 10
138.0
 20
20.0
 30
0.0
 11
138.0
 21
5.0
 31
0.0
  0
LINE
  5
57
330
4E
100
AcDbEntity
  8
1
  6
Continuous
 62
     7
100
AcDbLine
 10
148.5
 20
210.0
 30
0.0
 11
148.5
 21
195.0
 31
0.0
  0
LINE
  5
58
330
4E
100
AcDbEntity
  8
1
  6
Continuous
 62
     7
100
AcDbLine
 10
0.0
 20
0.0
 30
0.0
 11
296.9999999999999
 21
0.0
 31
0.0
  0
LINE
  5
59
330
4E
100
AcDbEntity
  8
1
  6
Continuous
 62
     7
100
AcDbLine
 10
0.0
 20
210.0
 30
0.0
 11
0.0
 21
0.0
 31
0.0
  0
LINE
  5
5A
330
4E
100
AcDbEntity
  8
1
  6
Continuous
 62
     7
100
AcDbLine
 10
296.9999999999999
 20
210.0
 30
0.0
 11
0.0
 21
210.0
 31
0.0
  0
LINE
  5
5B
330
4E
100
AcDbEntity
  8
1
  6
Continuous
 62
     7
100
AcDbLine
 10
296.9999999999999
 20
0.0
 30
0.0
 11
296.9999999999999
 21
210.0
 31
0.0
  0
LINE
  5
5C
330
4E
100
AcDbEntity
  8
1
  6
Continuous
 62
     7
100
AcDbLine
 10
4.99999999999989
 20
5.0
 30
0.0
 11
108.0
 21
5.0
 31
0.0
  0
LINE
  5
5D
330
4E
100
AcDbEntity
  8
1
  6
Continuous
 62
     7
100
AcDbLine
 10
291.9999999999999
 20
5.0
 30
0.0
 11
291.9999999999999
 21
189.0
 31
0.0
  0
LINE
  5
5E
330
4E
100
AcDbEntity
  8
1
  6
Continuous
 62
     7
100
AcDbLine
 10
291.9999999999999
 20
189.0
 30
0.0
 11
4.99999999999989
 21
189.0
 31
0.0
  0
LINE
  5
5F
102
{ACAD_REACTORS
330
A0
102
}
330
4E
100
AcDbEntity
  8
1
  6
Continuous
 62
     7
100
AcDbLine
 10
281.009634022076
 20
10.0774998398326
 30
0.0
 11
281.009634022076
 21
14.9225001601674
 31
0.0
  0
LINE
  5
60
102
{ACAD_REACTORS
330
9D
102
}
330
4E
100
AcDbEntity
  8
1
  6
Continuous
 62
     7
100
AcDbLine
 10
279.6763006887431
 20
12.5
 30
0.0
 11
279.6763006887431
 21
14.2320508075688
 31
0.0
  0
LINE
  5
61
102
{ACAD_REACTORS
330
9D
102
}
330
4E
100
AcDbEntity
  8
1
  6
Continuous
 62
     7
100
AcDbLine
 10
279.6763006887431
 20
14.2320508075688
 30
0.0
 11
278.82063825604
 21
12.75
 31
0.0
  0
LINE
  5
62
102
{ACAD_REACTORS
330
9D
102
}
330
4E
100
AcDbEntity
  8
1
  6
Continuous
 62
     7
100
AcDbLine
 10
278.531963121445
 20
12.75
 30
0.0
 11
277.6763006887431
 21
14.2320508075688
 31
0.0
  0
LINE
  5
63
102
{ACAD_REACTORS
330
9D
102
}
330
4E
100
AcDbEntity
  8
1
  6
Continuous
 62
     7
100
AcDbLine
 10
277.6763006887431
 20
14.2320508075688
 30
0.0
 11
277.6763006887431
 21
12.5
 31
0.0
  0
LINE
  5
64
330
4E
100
AcDbEntity
  8
1
  6
Continuous
 62
     7
100
AcDbLine
 10
270.2598654136011
 20
12.6443642643413
 30
0.0
 11
278.6763006887431
 21
17.5
 31
0.0
  0
LINE
  5
65
330
4E
100
AcDbEntity
  8
1
  6
Continuous
 62
     7
100
AcDbLine
 10
278.6763006887431
 20
17.5
 30
0.0
 11
287.092735963884
 21
12.6443642643413
 31
0.0
  0
LINE
  5
66
330
4E
100
AcDbEntity
  8
1
  6
Continuous
 62
     7
100
AcDbLine
 10
287.092735963884
 20
12.3556357356586
 30
0.0
 11
278.6763006887431
 21
7.5
 31
0.0
  0
LINE
  5
67
330
4E
100
AcDbEntity
  8
1
  6
Continuous
 62
     7
100
AcDbLine
 10
278.6763006887431
 20
7.5
 30
0.0
 11
270.2598654136011
 21
12.3556357356586
 31
0.0
  0
LINE
  5
68
102
{ACAD_REACTORS
330
9D
102
}
330
4E
100
AcDbEntity
  8
1
  6
Continuous
 62
     7
100
AcDbLine
 10
277.009634022076
 20
12.5
 30
0.0
 11
277.009634022076
 21
15.7312173120346
 31
0.0
  0
LINE
  5
69
102
{ACAD_REACTORS
330
9D
102
}
330
4E
100
AcDbEntity
  8
1
  6
Continuous
 62
     7
100
AcDbLine
 10
277.5040677056999
 20
15.8637004182723
 30
0.0
 11
278.6763006887431
 21
13.8333333333333
 31
0.0
  0
LINE
  5
6A
102
{ACAD_REACTORS
330
9D
102
}
330
4E
100
AcDbEntity
  8
1
  6
Continuous
 62
     7
100
AcDbLine
 10
277.009634022076
 20
12.5
 30
0.0
 11
277.009634022076
 21
10.8475850726329
 31
0.0
  0
LINE
  5
6B
102
{ACAD_REACTORS
330
9D
102
}
330
4E
100
AcDbEntity
  8
1
  6
Continuous
 62
     7
100
AcDbLine
 10
277.6763006887431
 20
10.8475850726329
 30
0.0
 11
277.6763006887431
 21
12.5
 31
0.0
  0
LINE
  5
6C
102
{ACAD_REACTORS
330
9D
102
}
330
4E
100
AcDbEntity
  8
1
  6
Continuous
 62
     7
100
AcDbLine
 10
279.6763006887431
 20
12.5
 30
0.0
 11
279.6763006887431
 21
9.3082690706018
 31
0.0
  0
LINE
  5
6D
102
{ACAD_REACTORS
330
9D
102
}
330
4E
100
AcDbEntity
  8
1
  6
Continuous
 62
     7
100
AcDbLine
 10
280.3429673554089
 20
9.3082690706018
 30
0.0
 11
280.3429673554089
 21
15.7312173120346
 31
0.0
  0
LINE
  5
6E
102
{ACAD_REACTORS
330
9D
102
}
330
4E
100
AcDbEntity
  8
1
  6
Continuous
 62
     7
100
AcDbLine
 10
279.848533671786
 20
15.8637004182723
 30
0.0
 11
278.6763006887431
 21
13.8333333333333
 31
0.0
  0
LINE
  5
6F
102
{ACAD_REACTORS
330
9E
102
}
330
4E
100
AcDbEntity
  8
1
  6
Continuous
 62
     7
100
AcDbLine
 10
275.6763006887431
 20
10.2700211480326
 30
0.0
 11
275.6763006887431
 21
14.9225001601674
 31
0.0
  0
LINE
  5
70
102
{ACAD_REACTORS
330
9E
102
}
330
4E
100
AcDbEntity
  8
1
  6
Continuous
 62
     7
100
AcDbLine
 10
276.3429673554089
 20
14.9225001601674
 30
0.0
 11
276.3429673554089
 21
10.2700211480327
 31
0.0
  0
LINE
  5
71
102
{ACAD_REACTORS
330
9E
102
}
330
4E
100
AcDbEntity
  8
1
  6
Continuous
 62
     7
100
AcDbLine
 10
276.3429673554089
 20
10.2700211480327
 30
0.0
 11
278.5095415065729
 21
9.0200745223616
 31
0.0
  0
LINE
  5
72
102
{ACAD_REACTORS
330
9E
102
}
330
4E
100
AcDbEntity
  8
1
  6
Continuous
 62
     7
100
AcDbLine
 10
278.176393204246
 20
8.44261746499581
 30
0.0
 11
276.0098190530829
 21
9.69256409066691
 31
0.0
  0
LINE
  5
73
102
{ACAD_REACTORS
330
9F
102
}
330
4E
100
AcDbEntity
  8
1
  6
Continuous
 62
     7
100
AcDbLine
 10
275.009634022076
 20
14.1532693909367
 30
0.0
 11
275.009634022076
 21
11.0392519172633
 31
0.0
  0
LINE
  5
74
102
{ACAD_REACTORS
330
9F
102
}
330
4E
100
AcDbEntity
  8
1
  6
Continuous
 62
     7
100
AcDbLine
 10
275.009634022076
 20
11.0392519172633
 30
0.0
 11
275.009634022076
 21
10.8467306090632
 31
0.0
  0
LINE
  5
75
102
{ACAD_REACTORS
330
9F
102
}
330
4E
100
AcDbEntity
  8
1
  6
Continuous
 62
     7
100
AcDbLine
 10
274.3429673554089
 20
10.8467306090632
 30
0.0
 11
274.3429673554089
 21
14.1532693909367
 31
0.0
  0
LINE
  5
76
102
{ACAD_REACTORS
330
A0
102
}
330
4E
100
AcDbEntity
  8
1
  6
Continuous
 62
     7
100
AcDbLine
 10
281.5095415065729
 20
15.2112286888503
 30
0.0
 11
282.842874839906
 21
14.4419979196194
 31
0.0
  0
LINE
  5
77
102
{ACAD_REACTORS
330
A0
102
}
330
4E
100
AcDbEntity
  8
1
  6
Continuous
 62
     7
100
AcDbLine
 10
282.50972653758
 20
13.8645408622538
 30
0.0
 11
281.6763006887431
 21
14.345363467352
 31
0.0
  0
LINE
  5
78
102
{ACAD_REACTORS
330
A0
102
}
330
4E
100
AcDbEntity
  8
1
  6
Continuous
 62
     7
100
AcDbLine
 10
281.6763006887431
 20
14.345363467352
 30
0.0
 11
281.6763006887431
 21
12.8333333333333
 31
0.0
  0
LINE
  5
79
102
{ACAD_REACTORS
330
A0
102
}
330
4E
100
AcDbEntity
  8
1
  6
Continuous
 62
     7
100
AcDbLine
 10
281.6763006887431
 20
12.8333333333333
 30
0.0
 11
282.6763006887431
 21
12.8333333333333
 31
0.0
  0
LINE
  5
7A
102
{ACAD_REACTORS
330
A0
102
}
330
4E
100
AcDbEntity
  8
1
  6
Continuous
 62
     7
100
AcDbLine
 10
282.6763006887431
 20
12.1666666666666
 30
0.0
 11
281.6763006887431
 21
12.1666666666666
 31
0.0
  0
LINE
  5
7B
102
{ACAD_REACTORS
330
A0
102
}
330
4E
100
AcDbEntity
  8
1
  6
Continuous
 62
     7
100
AcDbLine
 10
281.6763006887431
 20
12.1666666666666
 30
0.0
 11
281.6763006887431
 21
10.6546365326479
 31
0.0
  0
LINE
  5
7C
102
{ACAD_REACTORS
330
A0
102
}
330
4E
100
AcDbEntity
  8
1
  6
Continuous
 62
     7
100
AcDbLine
 10
281.6763006887431
 20
10.6546365326479
 30
0.0
 11
282.50972653758
 21
11.1354591377462
 31
0.0
  0
LINE
  5
7D
102
{ACAD_REACTORS
330
A0
102
}
330
4E
100
AcDbEntity
  8
1
  6
Continuous
 62
     7
100
AcDbLine
 10
282.842874839906
 20
10.5580020803803
 30
0.0
 11
281.5095415065729
 21
9.78877131114973
 31
0.0
  0
LINE
  5
7E
330
4E
100
AcDbEntity
  8
1
  6
Continuous
 62
     7
100
AcDbLine
 10
108.0
 20
25.0
 30
0.0
 11
291.9999999999999
 21
25.0
 31
0.0
  0
LINE
  5
7F
330
4E
100
AcDbEntity
  8
1
  6
Continuous
 62
     7
100
AcDbLine
 10
115.0
 20
20.0
 30
0.0
 11
115.0
 21
25.0
 31
0.0
  0
LINE
  5
80
330
4E
100
AcDbEntity
  8
1
  6
Continuous
 62
     7
100
AcDbLine
 10
133.0
 20
20.0
 30
0.0
 11
133.0
 21
25.0
 31
0.0
  0
LINE
  5
81
330
4E
100
AcDbEntity
  8
1
  6
Continuous
 62
     7
100
AcDbLine
 10
4.99999999999989
 20
189.0
 30
0.0
 11
4.99999999999989
 21
5.0
 31
0.0
  0
LINE
  5
82
330
4E
100
AcDbEntity
  8
1
  6
Continuous
 62
     7
100
AcDbLine
 10
108.0
 20
20.0
 30
0.0
 11
291.9999999999999
 21
20.0
 31
0.0
  0
LINE
  5
83
330
4E
100
AcDbEntity
  8
1
  6
Continuous
 62
     7
100
AcDbLine
 10
108.0
 20
25.0
 30
0.0
 11
108.0
 21
5.0
 31
0.0
  0
LINE
  5
84
330
4E
100
AcDbEntity
  8
1
  6
Continuous
 62
     7
100
AcDbLine
 10
108.0
 20
5.0
 30
0.0
 11
291.9999999999999
 21
5.0
 31
0.0
  0
ARC
  5
85
102
{ACAD_REACTORS
330
9D
102
}
330
4E
100
AcDbEntity
  8
1
  6
Continuous
 62
     7
100
AcDbCircle
 10
278.6763006887431
 20
12.8333333333333
 30
0.0
 40
0.1666666666672217
100
AcDbArc
 50
209.9999999998767
 51
329.9999999999279
  0
ARC
  5
86
102
{ACAD_REACTORS
330
9E
102
}
330
4E
100
AcDbEntity
  8
1
  6
Continuous
 62
     7
100
AcDbCircle
 10
276.3429673554089
 20
10.2700211480327
 30
0.0
 40
0.666666666665833
100
AcDbArc
 50
180.0000000000087
 51
240.018360631179
  0
ARC
  5
87
330
4E
100
AcDbEntity
  8
1
  6
Continuous
 62
     7
100
AcDbCircle
 10
270.343152489183
 20
12.5
 30
0.0
 40
0.1666666666666998
100
AcDbArc
 50
119.9816393689606
 51
240.0183606310565
  0
ARC
  5
88
330
4E
100
AcDbEntity
  8
1
  6
Continuous
 62
     7
100
AcDbCircle
 10
287.009448888303
 20
12.5
 30
0.0
 40
0.1666666666663598
100
AcDbArc
 50
299.9816393686896
 51
60.01836063129329
  0
ARC
  5
89
102
{ACAD_REACTORS
330
A0
102
}
330
4E
100
AcDbEntity
  8
1
  6
Continuous
 62
     7
100
AcDbCircle
 10
281.3429673554089
 20
14.9225001601674
 30
0.0
 40
0.3333333333337433
100
AcDbArc
 50
60.01836063103966
 51
180.0
  0
ARC
  5
8A
102
{ACAD_REACTORS
330
A0
102
}
330
4E
100
AcDbEntity
  8
1
  6
Continuous
 62
     7
100
AcDbCircle
 10
281.3429673554089
 20
10.0774998398326
 30
0.0
 40
0.3333333333329165
100
AcDbArc
 50
180.0
 51
299.9816393689629
  0
ARC
  5
8B
102
{ACAD_REACTORS
330
9D
102
}
330
4E
100
AcDbEntity
  8
1
  6
Continuous
 62
     7
100
AcDbCircle
 10
277.274600234551
 20
15.7312173120346
 30
0.0
 40
0.264966212476014
100
AcDbArc
 50
29.99999999992336
 51
180.0
  0
ARC
  5
8C
102
{ACAD_REACTORS
330
9D
102
}
330
4E
100
AcDbEntity
  8
1
  6
Continuous
 62
     7
100
AcDbCircle
 10
277.3429673554089
 20
10.8475850726329
 30
0.0
 40
0.3333333333329165
100
AcDbArc
 50
180.0
 51
0.0
  0
ARC
  5
8D
102
{ACAD_REACTORS
330
9D
102
}
330
4E
100
AcDbEntity
  8
1
  6
Continuous
 62
     7
100
AcDbCircle
 10
280.009634022076
 20
9.3082690706018
 30
0.0
 40
0.3333333333329165
100
AcDbArc
 50
180.0
 51
0.0
  0
ARC
  5
8E
102
{ACAD_REACTORS
330
9D
102
}
330
4E
100
AcDbEntity
  8
1
  6
Continuous
 62
     7
100
AcDbCircle
 10
280.0780011429339
 20
15.7312173120346
 30
0.0
 40
0.2649662124750307
100
AcDbArc
 50
0.0
 51
149.9999999999599
  0
ARC
  5
8F
102
{ACAD_REACTORS
330
9E
102
}
330
4E
100
AcDbEntity
  8
1
  6
Continuous
 62
     7
100
AcDbCircle
 10
276.009634022076
 20
14.9225001601674
 30
0.0
 40
0.3333333333329165
100
AcDbArc
 50
0.0
 51
180.0
  0
ARC
  5
90
102
{ACAD_REACTORS
330
9E
102
}
330
4E
100
AcDbEntity
  8
1
  6
Continuous
 62
     7
100
AcDbCircle
 10
278.3429673554089
 20
8.7313459936787
 30
0.0
 40
0.3333333333332227
100
AcDbArc
 50
240.0183606311911
 51
60.01836063103995
  0
ARC
  5
91
102
{ACAD_REACTORS
330
9F
102
}
330
4E
100
AcDbEntity
  8
1
  6
Continuous
 62
     7
100
AcDbCircle
 10
274.6763006887431
 20
14.1532693909367
 30
0.0
 40
0.3333333333329165
100
AcDbArc
 50
0.0
 51
180.0
  0
ARC
  5
92
102
{ACAD_REACTORS
330
9F
102
}
330
4E
100
AcDbEntity
  8
1
  6
Continuous
 62
     7
100
AcDbCircle
 10
274.6763006887431
 20
10.8467306090632
 30
0.0
 40
0.333333333334167
100
AcDbArc
 50
180.0
 51
0.0
  0
ARC
  5
93
102
{ACAD_REACTORS
330
A0
102
}
330
4E
100
AcDbEntity
  8
1
  6
Continuous
 62
     7
100
AcDbCircle
 10
282.6763006887431
 20
14.1532693909367
 30
0.0
 40
0.3333333333333172
100
AcDbArc
 50
240.0183606311666
 51
60.01836063117491
  0
ARC
  5
94
102
{ACAD_REACTORS
330
A0
102
}
330
4E
100
AcDbEntity
  8
1
  6
Continuous
 62
     7
100
AcDbCircle
 10
282.6763006887431
 20
12.5
 30
0.0
 40
0.3333333333333997
100
AcDbArc
 50
270.0
 51
90.0
  0
ARC
  5
95
102
{ACAD_REACTORS
330
A0
102
}
330
4E
100
AcDbEntity
  8
1
  6
Continuous
 62
     7
100
AcDbCircle
 10
282.6763006887431
 20
10.8467306090632
 30
0.0
 40
0.3333333333332335
100
AcDbArc
 50
299.9816393688079
 51
119.9816393688249
  0
MTEXT
  5
97
330
4E
100
AcDbEntity
  8
1
 62
     7
100
AcDbMText
 10
109.0
 20
7.49999999999987
 30
0.0
 40
3.0
 41
0.0
 71
     4
 72
     1
  1
Sign.
  7
CONVERTER_11
 73
     1
 44
0.75727272727273
  0
MTEXT
  5
98
330
4E
100
AcDbEntity
  8
1
 62
     7
100
AcDbMText
 10
109.0
 20
12.4999999999999
 30
0.0
 40
3.0
 41
0.0
 71
     4
 72
     1
  1
Date
  7
CONVERTER_11
 73
     1
 44
0.75727272727273
  0
MTEXT
  5
9A
330
4E
100
AcDbEntity
  8
1
 62
     7
100
AcDbMText
 10
123.0
 20
17.4999999999999
 30
0.0
 40
2.5
 41
0.0
 71
     5
 72
     1
  1
dimensions in mm
  7
CONVERTER_12
 73
     1
 44
0.75727272727273
  0
MTEXT
  5
9B
330
4E
100
AcDbEntity
  8
1
 62
     7
100
AcDbMText
 10
151.5
 20
194.0
 30
0.0
 40
4.0
 41
0.0
 71
     5
 72
     1
  1
Diritti riservati      All rights reserved
  7
CONVERTER_11
 73
     1
 44
0.75727272727273
  0
MTEXT
  5
9C
330
4E
100
AcDbEntity
  8
1
 62
     7
100
AcDbMText
 10
256.6763006887431
 20
16.260639420756
 30
0.0
 40
3.0
 41
0.0
 71
     5
 72
     1
  1
Scale
  7
CONVERTER_11
 73
     1
 44
0.75727272727273
  0
HATCH
  5
9D
330
4E
100
AcDbEntity
  8
1
  6
Continuous
 62
     7
100
AcDbHatch
 10
0.0
 20
0.0
 30
0.0
210
0.0
220
0.0
230
1.0
  2
SOLID
 70
     1
 71
     1
 91
        1
 92
        1
 93
       16
 72
     2
 10
277.274600234551
 20
15.7312173120346
 40
0.264966212476014
 50
29.99999999992336
 51
180.0
 73
     1
 72
     1
 10
277.009634022076
 20
15.7312173120346
 11
277.009634022076
 21
12.5
 72
     1
 10
277.009634022076
 20
12.5
 11
277.009634022076
 21
10.8475850726329
 72
     2
 10
277.3429673554089
 20
10.8475850726329
 40
0.3333333333329165
 50
180.0
 51
360.0
 73
     1
 72
     1
 10
277.6763006887431
 20
10.8475850726329
 11
277.6763006887431
 21
12.5
 72
     1
 10
277.6763006887431
 20
12.5
 11
277.6763006887431
 21
14.2320508075688
 72
     1
 10
277.6763006887431
 20
14.2320508075688
 11
278.531963121445
 21
12.75
 72
     2
 10
278.6763006887431
 20
12.8333333333333
 40
0.1666666666672217
 50
209.9999999998767
 51
329.9999999999279
 73
     1
 72
     1
 10
278.82063825604
 20
12.75
 11
279.6763006887431
 21
14.2320508075688
 72
     1
 10
279.6763006887431
 20
14.2320508075688
 11
279.6763006887431
 21
12.5
 72
     1
 10
279.6763006887431
 20
12.5
 11
279.6763006887431
 21
9.3082690706018
 72
     2
 10
280.009634022076
 20
9.3082690706018
 40
0.3333333333329165
 50
180.0
 51
360.0
 73
     1
 72
     1
 10
280.3429673554089
 20
9.3082690706018
 11
280.3429673554089
 21
15.7312173120346
 72
     2
 10
280.0780011429339
 20
15.7312173120346
 40
0.2649662124750307
 50
0.0
 51
149.9999999999599
 73
     1
 72
     1
 10
279.848533671786
 20
15.8637004182723
 11
278.6763006887431
 21
13.8333333333333
 72
     1
 10
278.6763006887431
 20
13.8333333333333
 11
277.5040677056999
 21
15.8637004182723
 97
       16
330
6E
330
8E
330
6D
330
8D
330
6C
330
60
330
61
330
85
330
62
330
63
330
6B
330
8C
330
6A
330
68
330
8B
330
69
 75
     0
 76
     1
 98
        1
 10
0.0
 20
0.0
  0
HATCH
  5
9E
330
4E
100
AcDbEntity
  8
1
  6
Continuous
 62
     7
100
AcDbHatch
 10
0.0
 20
0.0
 30
0.0
210
0.0
220
0.0
230
1.0
  2
SOLID
 70
     1
 71
     1
 91
        1
 92
        1
 93
        7
 72
     1
 10
276.3429673554089
 20
14.9225001601674
 11
276.3429673554089
 21
10.2700211480327
 72
     1
 10
276.3429673554089
 20
10.2700211480327
 11
278.5095415065729
 21
9.0200745223616
 72
     2
 10
278.3429673554089
 20
8.731345993678698
 40
0.3333333333332227
 50
299.98163936896
 51
479.9816393688089
 73
     0
 72
     1
 10
278.176393204246
 20
8.44261746499581
 11
276.0098190530829
 21
9.69256409066691
 72
     2
 10
276.3429673554089
 20
10.2700211480327
 40
0.666666666665833
 50
119.981639368821
 51
179.9999999999913
 73
     0
 72
     1
 10
275.6763006887431
 20
10.2700211480326
 11
275.6763006887431
 21
14.9225001601674
 72
     2
 10
276.009634022076
 20
14.9225001601674
 40
0.3333333333329165
 50
180.0
 51
360.0
 73
     0
 97
        7
330
70
330
71
330
90
330
72
330
86
330
6F
330
8F
 75
     0
 76
     1
 98
        1
 10
0.0
 20
0.0
  0
HATCH
  5
9F
330
4E
100
AcDbEntity
  8
1
  6
Continuous
 62
     7
100
AcDbHatch
 10
0.0
 20
0.0
 30
0.0
210
0.0
220
0.0
230
1.0
  2
SOLID
 70
     1
 71
     1
 91
        1
 92
        1
 93
        5
 72
     1
 10
275.009634022076
 20
14.1532693909367
 11
275.009634022076
 21
11.0392519172633
 72
     1
 10
275.009634022076
 20
11.0392519172633
 11
275.009634022076
 21
10.8467306090632
 72
     2
 10
274.6763006887431
 20
10.8467306090632
 40
0.333333333334167
 50
0.0
 51
180.0
 73
     0
 72
     1
 10
274.3429673554089
 20
10.8467306090632
 11
274.3429673554089
 21
14.1532693909367
 72
     2
 10
274.6763006887431
 20
14.1532693909367
 40
0.3333333333329165
 50
180.0
 51
360.0
 73
     0
 97
        5
330
73
330
74
330
92
330
75
330
91
 75
     0
 76
     1
 98
        1
 10
0.0
 20
0.0
  0
HATCH
  5
A0
330
4E
100
AcDbEntity
  8
1
  6
Continuous
 62
     7
100
AcDbHatch
 10
0.0
 20
0.0
 30
0.0
210
0.0
220
0.0
230
1.0
  2
SOLID
 70
     1
 71
     1
 91
        1
 92
        1
 93
       14
 72
     1
 10
282.50972653758
 20
13.8645408622538
 11
281.6763006887431
 21
14.345363467352
 72
     1
 10
281.6763006887431
 20
14.345363467352
 11
281.6763006887431
 21
12.8333333333333
 72
     1
 10
281.6763006887431
 20
12.8333333333333
 11
282.6763006887431
 21
12.8333333333333
 72
     2
 10
282.6763006887431
 20
12.5
 40
0.3333333333333997
 50
270.0
 51
450.0
 73
     0
 72
     1
 10
282.6763006887431
 20
12.1666666666666
 11
281.6763006887431
 21
12.1666666666666
 72
     1
 10
281.6763006887431
 20
12.1666666666666
 11
281.6763006887431
 21
10.6546365326479
 72
     1
 10
281.6763006887431
 20
10.6546365326479
 11
282.50972653758
 21
11.1354591377462
 72
     2
 10
282.6763006887431
 20
10.8467306090632
 40
0.3333333333332335
 50
240.0183606311751
 51
420.0183606311921
 73
     0
 72
     1
 10
282.842874839906
 20
10.5580020803803
 11
281.5095415065729
 21
9.78877131114973
 72
     2
 10
281.3429673554089
 20
10.0774998398326
 40
0.3333333333329165
 50
60.01836063103707
 51
180.0
 73
     0
 72
     1
 10
281.009634022076
 20
10.0774998398326
 11
281.009634022076
 21
14.9225001601674
 72
     2
 10
281.3429673554089
 20
14.9225001601674
 40
0.3333333333337433
 50
180.0
 51
299.9816393689604
 73
     0
 72
     1
 10
281.5095415065729
 20
15.2112286888503
 11
282.842874839906
 21
14.4419979196194
 72
     2
 10
282.6763006887431
 20
14.1532693909367
 40
0.3333333333333172
 50
299.9816393688251
 51
479.9816393688335
 73
     0
 97
       14
330
76
330
89
330
5F
330
8A
330
7D
330
95
330
7C
330
7B
330
7A
330
94
330
79
330
78
330
77
330
93
 75
     0
 76
     1
 98
        1
 10
0.0
 20
0.0
  0
ENDBLK
  5
50
330
4E
100
AcDbEntity
  8
0
100
AcDbBlockEnd
  0
BLOCK
  5
737
330
730
100
AcDbEntity
  8
0
100
AcDbBlockBegin
  2
*D2
 70
     1
 10
0.0
 20
0.0
 30
0.0
  3
*D2
  1

  0
LINE
  5
731
330
730
100
AcDbEntity
  8
1
  6
Continuous
 62
     2
100
AcDbLine
 10
21.77085918161987
 20
169.642369446126
 30
0.0
 11
161.6387591250528
 21
169.642369446126
 31
0.0
  0
LINE
  5
732
330
730
100
AcDbEntity
  8
1
  6
Continuous
 62
     2
100
AcDbLine
 10
21.77085918161987
 20
117.2274933133812
 30
0.0
 11
21.77085918161987
 21
170.642369446126
 31
0.0
  0
LINE
  5
733
330
730
100
AcDbEntity
  8
1
  6
Continuous
 62
     2
100
AcDbLine
 10
161.6387591250528
 20
117.2274933133812
 30
0.0
 11
161.6387591250528
 21
170.642369446126
 31
0.0
  0
SOLID
  5
734
330
730
100
AcDbEntity
  8
1
 62
     2
100
AcDbTrace
 10
24.77085918161987
 20
170.0373269388882
 30
0.0
 11
24.77085918161987
 21
169.2474119533638
 31
0.0
 12
21.77085918161987
 22
169.642369446126
 32
0.0
 13
21.77085918161987
 23
169.642369446126
 33
0.0
  0
SOLID
  5
735
330
730
100
AcDbEntity
  8
1
 62
     2
100
AcDbTrace
 10
158.6387591250528
 20
169.2474119533638
 30
0.0
 11
158.6387591250528
 21
170.0373269388882
 31
0.0
 12
161.6387591250528
 22
169.642369446126
 32
0.0
 13
161.6387591250528
 23
169.642369446126
 33
0.0
  0
MTEXT
  5
736
330
730
100
AcDbEntity
  8
1
 62
     4
100
AcDbMText
 10
88.55480915333635
 20
171.642369446126
 30
0.0
 40
3.0
 41
0.0
 71
     7
 72
     1
  1
140
  7
CONVERTER_13
 11
0.9999999999970619
 21
2.424068405545306E-6
 31
0.0
 73
     1
 44
0.60024009603842
  0
ENDBLK
  5
738
330
730
100
AcDbEntity
  8
0
100
AcDbBlockEnd
  0
BLOCK
  5
742
330
73B
100
AcDbEntity
  8
0
100
AcDbBlockBegin
  2
*D3
 70
     1
 10
0.0
 20
0.0
 30
0.0
  3
*D3
  1

  0
LINE
  5
73C
330
73B
100
AcDbEntity
  8
1
  6
Continuous
 62
     2
100
AcDbLine
 10
39.20480915333684
 20
54.15443170726125
 30
0.0
 11
144.2048091533368
 21
54.15443170726125
 31
0.0
  0
LINE
  5
73D
330
73B
100
AcDbEntity
  8
1
  6
Continuous
 62
     2
100
AcDbLine
 10
39.20480915333684
 20
68.72749331338127
 30
0.0
 11
39.20480915333684
 21
53.15443170726125
 31
0.0
  0
LINE
  5
73E
330
73B
100
AcDbEntity
  8
1
  6
Continuous
 62
     2
100
AcDbLine
 10
144.2048091533368
 20
68.72749331338127
 30
0.0
 11
144.2048091533368
 21
53.15443170726125
 31
0.0
  0
SOLID
  5
73F
330
73B
100
AcDbEntity
  8
1
 62
     2
100
AcDbTrace
 10
42.20480915333684
 20
54.54938920002344
 30
0.0
 11
42.20480915333684
 21
53.75947421449906
 31
0.0
 12
39.20480915333684
 22
54.15443170726125
 32
0.0
 13
39.20480915333684
 23
54.15443170726125
 33
0.0
  0
SOLID
  5
740
330
73B
100
AcDbEntity
  8
1
 62
     2
100
AcDbTrace
 10
141.2048091533368
 20
53.75947421449906
 30
0.0
 11
141.2048091533368
 21
54.54938920002344
 31
0.0
 12
144.2048091533368
 22
54.15443170726125
 32
0.0
 13
144.2048091533368
 23
54.15443170726125
 33
0.0
  0
MTEXT
  5
741
330
73B
100
AcDbEntity
  8
1
 62
     4
100
AcDbMText
 10
88.55480915333683
 20
56.15443170726125
 30
0.0
 40
3.0
 41
0.0
 71
     7
 72
     1
  1
105
  7
CONVERTER_13
 11
0.9999999999970619
 21
2.424068405545306E-6
 31
0.0
 73
     1
 44
0.60024009603842
  0
ENDBLK
  5
743
330
73B
100
AcDbEntity
  8
0
100
AcDbBlockEnd
  0
BLOCK
  5
74D
330
746
100
AcDbEntity
  8
0
100
AcDbBlockBegin
  2
*D4
 70
     1
 10
0.0
 20
0.0
 30
0.0
  3
*D4
  1

  0
LINE
  5
747
330
746
100
AcDbEntity
  8
1
  6
Continuous
 62
     2
100
AcDbLine
 10
33.20480915333684
 20
41.7729977944406
 30
0.0
 11
150.2048091533368
 21
41.7729977944406
 31
0.0
  0
LINE
  5
748
330
746
100
AcDbEntity
  8
1
  6
Continuous
 62
     2
100
AcDbLine
 10
33.20480915333684
 20
71.22749331338127
 30
0.0
 11
33.20480915333684
 21
40.7729977944406
 31
0.0
  0
LINE
  5
749
330
746
100
AcDbEntity
  8
1
  6
Continuous
 62
     2
100
AcDbLine
 10
150.2048091533368
 20
71.22749331338127
 30
0.0
 11
150.2048091533368
 21
40.7729977944406
 31
0.0
  0
SOLID
  5
74A
330
746
100
AcDbEntity
  8
1
 62
     2
100
AcDbTrace
 10
36.20480915333684
 20
42.16795528720279
 30
0.0
 11
36.20480915333684
 21
41.37804030167841
 31
0.0
 12
33.20480915333684
 22
41.7729977944406
 32
0.0
 13
33.20480915333684
 23
41.7729977944406
 33
0.0
  0
SOLID
  5
74B
330
746
100
AcDbEntity
  8
1
 62
     2
100
AcDbTrace
 10
147.2048091533368
 20
41.37804030167841
 30
0.0
 11
147.2048091533368
 21
42.16795528720279
 31
0.0
 12
150.2048091533368
 22
41.7729977944406
 32
0.0
 13
150.2048091533368
 23
41.7729977944406
 33
0.0
  0
MTEXT
  5
74C
330
746
100
AcDbEntity
  8
1
 62
     4
100
AcDbMText
 10
89.00480915333684
 20
43.7729977944406
 30
0.0
 40
3.0
 41
0.0
 71
     7
 72
     1
  1
117
  7
CONVERTER_13
 11
0.9999999999970619
 21
2.424068405545306E-6
 31
0.0
 73
     1
 44
0.60024009603842
  0
ENDBLK
  5
74E
330
746
100
AcDbEntity
  8
0
100
AcDbBlockEnd
  0
BLOCK
  5
758
330
751
100
AcDbEntity
  8
0
100
AcDbBlockBegin
  2
*D5
 70
     1
 10
0.0
 20
0.0
 30
0.0
  3
*D5
  1

  0
LINE
  5
752
330
751
100
AcDbEntity
  8
1
  6
Continuous
 62
     2
100
AcDbLine
 10
211.9882184934788
 20
41.4745712976962
 30
0.0
 11
268.9882184934788
 21
41.4745712976962
 31
0.0
  0
LINE
  5
753
330
751
100
AcDbEntity
  8
1
  6
Continuous
 62
     2
100
AcDbLine
 10
211.9882184934788
 20
71.22749331338127
 30
0.0
 11
211.9882184934788
 21
40.4745712976962
 31
0.0
  0
LINE
  5
754
330
751
100
AcDbEntity
  8
1
  6
Continuous
 62
     2
100
AcDbLine
 10
268.9882184934788
 20
71.22749331338127
 30
0.0
 11
268.9882184934788
 21
40.4745712976962
 31
0.0
  0
SOLID
  5
755
330
751
100
AcDbEntity
  8
1
 62
     2
100
AcDbTrace
 10
214.9882184934788
 20
41.86952879045839
 30
0.0
 11
214.9882184934788
 21
41.07961380493401
 31
0.0
 12
211.9882184934788
 22
41.4745712976962
 32
0.0
 13
211.9882184934788
 23
41.4745712976962
 33
0.0
  0
SOLID
  5
756
330
751
100
AcDbEntity
  8
1
 62
     2
100
AcDbTrace
 10
265.9882184934788
 20
41.07961380493401
 30
0.0
 11
265.9882184934788
 21
41.86952879045839
 31
0.0
 12
268.9882184934788
 22
41.4745712976962
 32
0.0
 13
268.9882184934788
 23
41.4745712976962
 33
0.0
  0
MTEXT
  5
757
330
751
100
AcDbEntity
  8
1
 62
     4
100
AcDbMText
 10
238.2382184934788
 20
43.4745712976962
 30
0.0
 40
3.0
 41
0.0
 71
     7
 72
     1
  1
57
  7
CONVERTER_13
 11
0.9999999999970619
 21
2.424068405545306E-6
 31
0.0
 73
     1
 44
0.60024009603842
  0
ENDBLK
  5
759
330
751
100
AcDbEntity
  8
0
100
AcDbBlockEnd
  0
BLOCK
  5
763
330
75C
100
AcDbEntity
  8
0
100
AcDbBlockBegin
  2
*D6
 70
     1
 10
0.0
 20
0.0
 30
0.0
  3
*D6
  1

  0
LINE
  5
75D
330
75C
100
AcDbEntity
  8
1
  6
Continuous
 62
     2
100
AcDbLine
 10
217.9882184934809
 20
54.5041998963537
 30
0.0
 11
262.9882184934809
 21
54.5041998963537
 31
0.0
  0
LINE
  5
75E
330
75C
100
AcDbEntity
  8
1
  6
Continuous
 62
     2
100
AcDbLine
 10
217.9882184934809
 20
68.72749331338127
 30
0.0
 11
217.9882184934809
 21
53.5041998963537
 31
0.0
  0
LINE
  5
75F
330
75C
100
AcDbEntity
  8
1
  6
Continuous
 62
     2
100
AcDbLine
 10
262.9882184934809
 20
68.72749331338127
 30
0.0
 11
262.9882184934809
 21
53.5041998963537
 31
0.0
  0
SOLID
  5
760
330
75C
100
AcDbEntity
  8
1
 62
     2
100
AcDbTrace
 10
220.9882184934809
 20
54.89915738911589
 30
0.0
 11
220.9882184934809
 21
54.10924240359151
 31
0.0
 12
217.9882184934809
 22
54.5041998963537
 32
0.0
 13
217.9882184934809
 23
54.5041998963537
 33
0.0
  0
SOLID
  5
761
330
75C
100
AcDbEntity
  8
1
 62
     2
100
AcDbTrace
 10
259.9882184934809
 20
54.10924240359151
 30
0.0
 11
259.9882184934809
 21
54.89915738911589
 31
0.0
 12
262.9882184934809
 22
54.5041998963537
 32
0.0
 13
262.9882184934809
 23
54.5041998963537
 33
0.0
  0
MTEXT
  5
762
330
75C
100
AcDbEntity
  8
1
 62
     4
100
AcDbMText
 10
238.2382184934809
 20
56.5041998963537
 30
0.0
 40
3.0
 41
0.0
 71
     7
 72
     1
  1
45
  7
CONVERTER_13
 11
0.9999999999970619
 21
2.424068405545306E-6
 31
0.0
 73
     1
 44
0.60024009603842
  0
ENDBLK
  5
764
330
75C
100
AcDbEntity
  8
0
100
AcDbBlockEnd
  0
BLOCK
  5
76E
330
767
100
AcDbEntity
  8
0
100
AcDbBlockBegin
  2
*D7
 70
     1
 10
0.0
 20
0.0
 30
0.0
  3
*D7
  1

  0
LINE
  5
768
330
767
100
AcDbEntity
  8
1
  6
Continuous
 62
     2
100
AcDbLine
 10
279.69069852012
 20
134.7274933133811
 30
0.0
 11
279.69069852012
 21
71.72749331338126
 31
0.0
  0
LINE
  5
769
330
767
100
AcDbEntity
  8
1
  6
Continuous
 62
     2
100
AcDbLine
 10
218.9382184934849
 20
134.7274933133811
 30
0.0
 11
280.69069852012
 21
134.7274933133811
 31
0.0
  0
LINE
  5
76A
330
767
100
AcDbEntity
  8
1
  6
Continuous
 62
     2
100
AcDbLine
 10
212.4882184934788
 20
71.72749331338126
 30
0.0
 11
280.69069852012
 21
71.72749331338126
 31
0.0
  0
SOLID
  5
76B
330
767
100
AcDbEntity
  8
1
 62
     2
100
AcDbTrace
 10
280.0856560128822
 20
131.7274933133811
 30
0.0
 11
279.2957410273578
 21
131.7274933133811
 31
0.0
 12
279.69069852012
 22
134.7274933133811
 32
0.0
 13
279.69069852012
 23
134.7274933133811
 33
0.0
  0
SOLID
  5
76C
330
767
100
AcDbEntity
  8
1
 62
     2
100
AcDbTrace
 10
279.2957410273578
 20
74.72749331338126
 30
0.0
 11
280.0856560128822
 21
74.72749331338126
 31
0.0
 12
279.69069852012
 22
71.72749331338126
 32
0.0
 13
279.69069852012
 23
71.72749331338126
 33
0.0
  0
MTEXT
  5
76D
330
767
100
AcDbEntity
  8
1
 62
     4
100
AcDbMText
 10
277.69069852012
 20
100.9774933133812
 30
0.0
 40
3.0
 41
0.0
 71
     7
 72
     1
  1
63
  7
CONVERTER_13
 11
0.0
 21
1.0
 31
0.0
 73
     1
 44
0.60024009603842
  0
ENDBLK
  5
76F
330
767
100
AcDbEntity
  8
0
100
AcDbBlockEnd
  0
BLOCK
  5
779
330
772
100
AcDbEntity
  8
0
100
AcDbBlockBegin
  2
*D8
 70
     1
 10
0.0
 20
0.0
 30
0.0
  3
*D8
  1

  0
LINE
  5
773
330
772
100
AcDbEntity
  8
1
  6
Continuous
 62
     2
100
AcDbLine
 10
268.9882184934899
 20
164.484413589024
 30
0.0
 11
211.9882184934888
 21
164.484413589024
 31
0.0
  0
LINE
  5
774
330
772
100
AcDbEntity
  8
1
  6
Continuous
 62
     2
100
AcDbLine
 10
268.9882184934899
 20
132.2274933133812
 30
0.0
 11
268.9882184934899
 21
165.484413589024
 31
0.0
  0
LINE
  5
775
330
772
100
AcDbEntity
  8
1
  6
Continuous
 62
     2
100
AcDbLine
 10
211.9882184934888
 20
132.2274933133812
 30
0.0
 11
211.9882184934888
 21
165.484413589024
 31
0.0
  0
SOLID
  5
776
330
772
100
AcDbEntity
  8
1
 62
     2
100
AcDbTrace
 10
265.9882184934899
 20
164.0894560962618
 30
0.0
 11
265.9882184934899
 21
164.8793710817862
 31
0.0
 12
268.9882184934899
 22
164.484413589024
 32
0.0
 13
268.9882184934899
 23
164.484413589024
 33
0.0
  0
SOLID
  5
777
330
772
100
AcDbEntity
  8
1
 62
     2
100
AcDbTrace
 10
214.9882184934888
 20
164.8793710817862
 30
0.0
 11
214.9882184934888
 21
164.0894560962618
 31
0.0
 12
211.9882184934888
 22
164.484413589024
 32
0.0
 13
211.9882184934888
 23
164.484413589024
 33
0.0
  0
MTEXT
  5
778
330
772
100
AcDbEntity
  8
1
 62
     4
100
AcDbMText
 10
238.2382184934893
 20
166.484413589024
 30
0.0
 40
3.0
 41
0.0
 71
     7
 72
     1
  1
58
  7
CONVERTER_13
 11
0.9999999999970619
 21
2.424068405545306E-6
 31
0.0
 73
     1
 44
0.60024009603842
  0
ENDBLK
  5
77A
330
772
100
AcDbEntity
  8
0
100
AcDbBlockEnd
  0
BLOCK
  5
784
330
77D
100
AcDbEntity
  8
0
100
AcDbBlockBegin
  2
*D9
 70
     1
 10
0.0
 20
0.0
 30
0.0
  3
*D9
  1

  0
LINE
  5
77E
330
77D
100
AcDbEntity
  8
1
  6
Continuous
 62
     2
100
AcDbLine
 10
171.541352584074
 20
105.6694933133812
 30
0.0
 11
171.541352584074
 21
76.56549331338127
 31
0.0
  0
LINE
  5
77F
330
77D
100
AcDbEntity
  8
1
  6
Continuous
 62
     2
100
AcDbLine
 10
150.8048091533368
 20
105.6694933133812
 30
0.0
 11
172.541352584074
 21
105.6694933133812
 31
0.0
  0
LINE
  5
780
330
77D
100
AcDbEntity
  8
1
  6
Continuous
 62
     2
100
AcDbLine
 10
150.7048091533368
 20
76.56549331338127
 30
0.0
 11
172.541352584074
 21
76.56549331338127
 31
0.0
  0
SOLID
  5
781
330
77D
100
AcDbEntity
  8
1
 62
     2
100
AcDbTrace
 10
171.9363100768362
 20
102.6694933133812
 30
0.0
 11
171.1463950913118
 21
102.6694933133812
 31
0.0
 12
171.541352584074
 22
105.6694933133812
 32
0.0
 13
171.541352584074
 23
105.6694933133812
 33
0.0
  0
SOLID
  5
782
330
77D
100
AcDbEntity
  8
1
 62
     2
100
AcDbTrace
 10
171.1463950913118
 20
79.56549331338127
 30
0.0
 11
171.9363100768362
 21
79.56549331338127
 31
0.0
 12
171.541352584074
 22
76.56549331338127
 32
0.0
 13
171.541352584074
 23
76.56549331338127
 33
0.0
  0
MTEXT
  5
783
330
77D
100
AcDbEntity
  8
1
 62
     4
100
AcDbMText
 10
169.541352584074
 20
86.46749331338121
 30
0.0
 40
3.0
 41
0.0
 71
     7
 72
     1
  1
PG21
  7
CONVERTER_13
 11
0.0
 21
1.0
 31
0.0
 73
     1
 44
0.60024009603842
  0
ENDBLK
  5
785
330
77D
100
AcDbEntity
  8
0
100
AcDbBlockEnd
  0
BLOCK
  5
791
330
788
100
AcDbEntity
  8
0
100
AcDbBlockBegin
  2
*D10
 70
     1
 10
0.0
 20
0.0
 30
0.0
  3
*D10
  1

  0
LINE
  5
789
330
788
100
AcDbEntity
  8
1
  6
Continuous
 62
     2
100
AcDbLine
 10
197.543281845478
 20
65.72749331338127
 30
0.0
 11
197.543281845478
 21
71.72749331338127
 31
0.0
  0
LINE
  5
78A
330
788
100
AcDbEntity
  8
1
  6
Continuous
 62
     2
100
AcDbLine
 10
197.543281845478
 20
71.72749331338127
 30
0.0
 11
197.543281845478
 21
75.72749331338127
 31
0.0
  0
LINE
  5
78B
330
788
100
AcDbEntity
  8
1
  6
Continuous
 62
     2
100
AcDbLine
 10
197.543281845478
 20
75.72749331338127
 30
0.0
 11
197.543281845478
 21
81.72749331338127
 31
0.0
  0
LINE
  5
78C
330
788
100
AcDbEntity
  8
1
  6
Continuous
 62
     2
100
AcDbLine
 10
211.4882184934788
 20
71.72749331338127
 30
0.0
 11
196.543281845478
 21
71.72749331338127
 31
0.0
  0
LINE
  5
78D
330
788
100
AcDbEntity
  8
1
  6
Continuous
 62
     2
100
AcDbLine
 10
211.4882184934788
 20
75.72749331338127
 30
0.0
 11
196.543281845478
 21
75.72749331338127
 31
0.0
  0
SOLID
  5
78E
330
788
100
AcDbEntity
  8
1
 62
     2
100
AcDbTrace
 10
197.9382393382402
 20
68.72749331338127
 30
0.0
 11
197.1483243527158
 21
68.72749331338127
 31
0.0
 12
197.543281845478
 22
71.72749331338127
 32
0.0
 13
197.543281845478
 23
71.72749331338127
 33
0.0
  0
SOLID
  5
78F
330
788
100
AcDbEntity
  8
1
 62
     2
100
AcDbTrace
 10
197.1483243527158
 20
78.72749331338127
 30
0.0
 11
197.9382393382402
 21
78.72749331338127
 31
0.0
 12
197.543281845478
 22
75.72749331338127
 32
0.0
 13
197.543281845478
 23
75.72749331338127
 33
0.0
  0
MTEXT
  5
790
330
788
100
AcDbEntity
  8
1
 62
     4
100
AcDbMText
 10
195.543281845478
 20
72.82749331338127
 30
0.0
 40
3.0
 41
0.0
 71
     7
 72
     1
  1
4
  7
CONVERTER_13
 11
0.0
 21
1.0
 31
0.0
 73
     1
 44
0.60024009603842
  0
ENDBLK
  5
792
330
788
100
AcDbEntity
  8
0
100
AcDbBlockEnd
  0
ENDSEC
  0
SECTION
  2
ENTITIES
  0
INSERT
  5
51
330
1F
100
AcDbEntity
  8
1
100
AcDbBlockReference
  2
_formato_A4
 10
296.9999999999999
 20
0.0
 30
0.0
  0
POINT
  5
A1
330
1F
100
AcDbEntity
  8
Bemaßungen_TC_020513_DIN_
 62
     7
100
AcDbPoint
 10
150.2048091533368
 20
105.6694933133812
 30
0.0
  0
POINT
  5
A2
330
1F
100
AcDbEntity
  8
Bemaßungen_TC_020513_DIN_
 62
     7
100
AcDbPoint
 10
150.2048091533368
 20
76.56549331338127
 30
0.0
  0
POINT
  5
A3
330
1F
100
AcDbEntity
  8
Bemaßungen_TC_020513_DIN_
 62
     7
100
AcDbPoint
 10
21.77085918161987
 20
116.7274933133812
 30
0.0
  0
POINT
  5
A4
330
1F
100
AcDbEntity
  8
Bemaßungen_TC_020513_DIN_
 62
     7
100
AcDbPoint
 10
161.6387591250528
 20
116.7274933133812
 30
0.0
  0
POINT
  5
A5
330
1F
100
AcDbEntity
  8
Bemaßungen_TC_020513_DIN_
 62
     7
100
AcDbPoint
 10
268.9882184934899
 20
127.7274933133812
 30
0.0
  0
POINT
  5
A6
330
1F
100
AcDbEntity
  8
Bemaßungen_TC_020513_DIN_
 62
     7
100
AcDbPoint
 10
211.9882184934888
 20
127.7274933133812
 30
0.0
  0
POINT
  5
A7
330
1F
100
AcDbEntity
  8
Bemaßungen_TC_020513_DIN_
 62
     7
100
AcDbPoint
 10
39.20480915333684
 20
73.72749331338127
 30
0.0
  0
POINT
  5
A8
330
1F
100
AcDbEntity
  8
Bemaßungen_TC_020513_DIN_
 62
     7
100
AcDbPoint
 10
144.2048091533368
 20
73.72749331338127
 30
0.0
  0
POINT
  5
A9
330
1F
100
AcDbEntity
  8
Bemaßungen_TC_020513_DIN_
 62
     7
100
AcDbPoint
 10
33.20480915333684
 20
73.72749331338127
 30
0.0
  0
POINT
  5
AA
330
1F
100
AcDbEntity
  8
Bemaßungen_TC_020513_DIN_
 62
     7
100
AcDbPoint
 10
150.2048091533368
 20
73.72749331338127
 30
0.0
  0
POINT
  5
AB
330
1F
100
AcDbEntity
  8
Bemaßungen_TC_020513_DIN_
 62
     7
100
AcDbPoint
 10
217.9882184934809
 20
73.72749331338127
 30
0.0
  0
POINT
  5
AC
330
1F
100
AcDbEntity
  8
Bemaßungen_TC_020513_DIN_
 62
     7
100
AcDbPoint
 10
262.9882184934809
 20
73.72749331338127
 30
0.0
  0
POINT
  5
AD
330
1F
100
AcDbEntity
  8
Bemaßungen_TC_020513_DIN_
 62
     7
100
AcDbPoint
 10
211.9882184934788
 20
73.72749331338127
 30
0.0
  0
POINT
  5
AE
330
1F
100
AcDbEntity
  8
Bemaßungen_TC_020513_DIN_
 62
     7
100
AcDbPoint
 10
268.9882184934788
 20
73.72749331338127
 30
0.0
  0
POINT
  5
AF
330
1F
100
AcDbEntity
  8
Bemaßungen_TC_020513_DIN_
 62
     7
100
AcDbPoint
 10
211.9882184934788
 20
71.72749331338127
 30
0.0
  0
POINT
  5
B0
330
1F
100
AcDbEntity
  8
Bemaßungen_TC_020513_DIN_
 62
     7
100
AcDbPoint
 10
216.6882184934879
 20
152.7274933133812
 30
0.0
  0
POINT
  5
B1
330
1F
100
AcDbEntity
  8
Bemaßungen_TC_020513_DIN_
 62
     7
100
AcDbPoint
 10
135.3548091533369
 20
134.7274933133812
 30
0.0
  0
POINT
  5
B2
330
1F
100
AcDbEntity
  8
Bemaßungen_TC_020513_DIN_
 62
     7
100
AcDbPoint
 10
136.2048091533368
 20
71.72749331338127
 30
0.0
  0
POINT
  5
B3
330
1F
100
AcDbEntity
  8
Bemaßungen_TC_020513_DIN_
 62
     7
100
AcDbPoint
 10
211.9882184934788
 20
71.72749331338127
 30
0.0
  0
POINT
  5
B4
330
1F
100
AcDbEntity
  8
Bemaßungen_TC_020513_DIN_
 62
     7
100
AcDbPoint
 10
211.9882184934788
 20
75.72749331338127
 30
0.0
  0
POINT
  5
B5
330
1F
100
AcDbEntity
  8
Bemaßungen_TC_020513_DIN_
 62
     7
100
AcDbPoint
 10
150.2048091533368
 20
105.6694933133812
 30
0.0
  0
POINT
  5
B6
330
1F
100
AcDbEntity
  8
Bemaßungen_TC_020513_DIN_
 62
     7
100
AcDbPoint
 10
150.2048091533368
 20
76.56549331338127
 30
0.0
  0
POINT
  5
B7
330
1F
100
AcDbEntity
  8
Bemaßungen_TC_020513_DIN_
 62
     7
100
AcDbPoint
 10
21.77085918161987
 20
116.7274933133812
 30
0.0
  0
POINT
  5
B8
330
1F
100
AcDbEntity
  8
Bemaßungen_TC_020513_DIN_
 62
     7
100
AcDbPoint
 10
161.6387591250528
 20
116.7274933133812
 30
0.0
  0
POINT
  5
B9
330
1F
100
AcDbEntity
  8
Bemaßungen_TC_020513_DIN_
 62
     7
100
AcDbPoint
 10
268.9882184934899
 20
127.7274933133812
 30
0.0
  0
POINT
  5
BA
330
1F
100
AcDbEntity
  8
Bemaßungen_TC_020513_DIN_
 62
     7
100
AcDbPoint
 10
211.9882184934888
 20
127.7274933133812
 30
0.0
  0
POINT
  5
BB
330
1F
100
AcDbEntity
  8
Bemaßungen_TC_020513_DIN_
 62
     7
100
AcDbPoint
 10
39.20480915333684
 20
73.72749331338127
 30
0.0
  0
POINT
  5
BC
330
1F
100
AcDbEntity
  8
Bemaßungen_TC_020513_DIN_
 62
     7
100
AcDbPoint
 10
144.2048091533368
 20
73.72749331338127
 30
0.0
  0
POINT
  5
BD
330
1F
100
AcDbEntity
  8
Bemaßungen_TC_020513_DIN_
 62
     7
100
AcDbPoint
 10
33.20480915333684
 20
73.72749331338127
 30
0.0
  0
POINT
  5
BE
330
1F
100
AcDbEntity
  8
Bemaßungen_TC_020513_DIN_
 62
     7
100
AcDbPoint
 10
150.2048091533368
 20
73.72749331338127
 30
0.0
  0
POINT
  5
BF
330
1F
100
AcDbEntity
  8
Bemaßungen_TC_020513_DIN_
 62
     7
100
AcDbPoint
 10
217.9882184934809
 20
73.72749331338127
 30
0.0
  0
POINT
  5
C0
330
1F
100
AcDbEntity
  8
Bemaßungen_TC_020513_DIN_
 62
     7
100
AcDbPoint
 10
262.9882184934809
 20
73.72749331338127
 30
0.0
  0
POINT
  5
C1
330
1F
100
AcDbEntity
  8
Bemaßungen_TC_020513_DIN_
 62
     7
100
AcDbPoint
 10
211.9882184934788
 20
73.72749331338127
 30
0.0
  0
POINT
  5
C2
330
1F
100
AcDbEntity
  8
Bemaßungen_TC_020513_DIN_
 62
     7
100
AcDbPoint
 10
268.9882184934788
 20
73.72749331338127
 30
0.0
  0
POINT
  5
C3
330
1F
100
AcDbEntity
  8
Bemaßungen_TC_020513_DIN_
 62
     7
100
AcDbPoint
 10
211.9882184934788
 20
71.72749331338127
 30
0.0
  0
POINT
  5
C4
330
1F
100
AcDbEntity
  8
Bemaßungen_TC_020513_DIN_
 62
     7
100
AcDbPoint
 10
216.6882184934879
 20
152.7274933133812
 30
0.0
  0
POINT
  5
C5
330
1F
100
AcDbEntity
  8
Bemaßungen_TC_020513_DIN_
 62
     7
100
AcDbPoint
 10
135.3548091533369
 20
134.7274933133812
 30
0.0
  0
POINT
  5
C6
330
1F
100
AcDbEntity
  8
Bemaßungen_TC_020513_DIN_
 62
     7
100
AcDbPoint
 10
136.2048091533368
 20
71.72749331338127
 30
0.0
  0
POINT
  5
C7
330
1F
100
AcDbEntity
  8
Bemaßungen_TC_020513_DIN_
 62
     7
100
AcDbPoint
 10
211.9882184934788
 20
71.72749331338127
 30
0.0
  0
POINT
  5
C8
330
1F
100
AcDbEntity
  8
Bemaßungen_TC_020513_DIN_
 62
     7
100
AcDbPoint
 10
211.9882184934788
 20
75.72749331338127
 30
0.0
  0
LINE
  5
519
330
1F
100
AcDbEntity
  8
Sichtbare_Kanten_TC_020513_DIN_
  6
Continuous
 62
     7
100
AcDbLine
 10
93.45480915333684
 20
98.17115992451718
 30
0.0
 11
93.45480915333684
 21
101.2838267022462
 31
0.0
  0
LINE
  5
51A
330
1F
100
AcDbEntity
  8
Sichtbare_Kanten_TC_020513_DIN_
  6
Continuous
 62
     7
100
AcDbLine
 10
94.82969810082886
 20
98.53125616200617
 30
0.0
 11
93.82969810082886
 21
97.95458949534017
 31
0.0
  0
LINE
  5
51B
330
1F
100
AcDbEntity
  8
Sichtbare_Kanten_TC_020513_DIN_
  6
Continuous
 62
     7
100
AcDbLine
 10
93.95480915333684
 20
98.60391631341616
 30
0.0
 11
94.57992020584385
 21
98.96439702036218
 31
0.0
  0
LINE
  5
51C
330
1F
100
AcDbEntity
  8
Sichtbare_Kanten_TC_020513_DIN_
  6
Continuous
 62
     7
100
AcDbLine
 10
93.95480915333684
 20
99.47749331338218
 30
0.0
 11
93.95480915333684
 21
98.60391631341616
 31
0.0
  0
LINE
  5
51D
330
1F
100
AcDbEntity
  8
Sichtbare_Kanten_TC_020513_DIN_
  6
Continuous
 62
     7
100
AcDbLine
 10
94.70480915333684
 20
99.47749331338218
 30
0.0
 11
93.95480915333684
 21
99.47749331338218
 31
0.0
  0
LINE
  5
51E
330
1F
100
AcDbEntity
  8
Sichtbare_Kanten_TC_020513_DIN_
  6
Continuous
 62
     7
100
AcDbLine
 10
93.95480915333684
 20
99.97749331338119
 30
0.0
 11
94.70480915333684
 21
99.97749331338218
 31
0.0
  0
LINE
  5
51F
330
1F
100
AcDbEntity
  8
Sichtbare_Kanten_TC_020513_DIN_
  6
Continuous
 62
     7
100
AcDbLine
 10
93.95480915333684
 20
100.8510703133482
 30
0.0
 11
93.95480915333684
 21
99.97749331338119
 31
0.0
  0
LINE
  5
520
330
1F
100
AcDbEntity
  8
Sichtbare_Kanten_TC_020513_DIN_
  6
Continuous
 62
     7
100
AcDbLine
 10
94.57992020584385
 20
100.4905896064022
 30
0.0
 11
93.95480915333684
 21
100.8510703133482
 31
0.0
  0
LINE
  5
521
330
1F
100
AcDbEntity
  8
Sichtbare_Kanten_TC_020513_DIN_
  6
Continuous
 62
     7
100
AcDbLine
 10
93.82969810082886
 20
101.5003971314242
 30
0.0
 11
94.82969810082886
 21
100.9237304647572
 31
0.0
  0
LINE
  5
522
330
1F
100
AcDbEntity
  8
Sichtbare_Kanten_TC_020513_DIN_
  6
Continuous
 62
     7
100
AcDbLine
 10
88.95480915333684
 20
100.7174933133812
 30
0.0
 11
88.95480915333684
 21
98.73749331338118
 31
0.0
  0
LINE
  5
523
330
1F
100
AcDbEntity
  8
Sichtbare_Kanten_TC_020513_DIN_
  6
Continuous
 62
     7
100
AcDbLine
 10
88.45480915333684
 20
98.73749331338118
 30
0.0
 11
88.45480915333684
 21
100.7174933133812
 31
0.0
  0
LINE
  5
524
330
1F
100
AcDbEntity
  8
Sichtbare_Kanten_TC_020513_DIN_
  6
Continuous
 62
     7
100
AcDbLine
 10
85.70480915333684
 20
99.72749331338119
 30
0.0
 11
91.70480915333684
 21
96.26749331338218
 31
0.0
  0
LINE
  5
525
330
1F
100
AcDbEntity
  8
Sichtbare_Kanten_TC_020513_DIN_
  6
Continuous
 62
     7
100
AcDbLine
 10
91.70480915333684
 20
96.26749331338218
 30
0.0
 11
97.70480915333684
 21
99.72749331338119
 31
0.0
  0
LINE
  5
526
330
1F
100
AcDbEntity
  8
Sichtbare_Kanten_TC_020513_DIN_
  6
Continuous
 62
     7
100
AcDbLine
 10
97.70480915333684
 20
99.72749331338119
 30
0.0
 11
91.70480915333684
 21
103.1874933133822
 31
0.0
  0
LINE
  5
527
330
1F
100
AcDbEntity
  8
Sichtbare_Kanten_TC_020513_DIN_
  6
Continuous
 62
     7
100
AcDbLine
 10
91.70480915333684
 20
103.1874933133822
 30
0.0
 11
85.70480915333684
 21
99.72749331338119
 31
0.0
  0
LINE
  5
528
330
1F
100
AcDbEntity
  8
Sichtbare_Kanten_TC_020513_DIN_
  6
Continuous
 62
     7
100
AcDbLine
 10
91.70480915333684
 20
95.97890359115019
 30
0.0
 11
85.20436454830985
 21
99.72749331338218
 31
0.0
  0
LINE
  5
529
330
1F
100
AcDbEntity
  8
Sichtbare_Kanten_TC_020513_DIN_
  6
Continuous
 62
     7
100
AcDbLine
 10
98.20525375836286
 20
99.72749331338218
 30
0.0
 11
91.70480915333684
 21
95.97890359115019
 31
0.0
  0
LINE
  5
52A
330
1F
100
AcDbEntity
  8
Sichtbare_Kanten_TC_020513_DIN_
  6
Continuous
 62
     7
100
AcDbLine
 10
91.70480915333684
 20
103.4760830356142
 30
0.0
 11
98.20525375836286
 21
99.72749331338218
 31
0.0
  0
LINE
  5
52B
330
1F
100
AcDbEntity
  8
Sichtbare_Kanten_TC_020513_DIN_
  6
Continuous
 62
     7
100
AcDbLine
 10
85.20436454830985
 20
99.72749331338218
 30
0.0
 11
91.70480915333684
 21
103.4760830356142
 31
0.0
  0
LINE
  5
52C
330
1F
100
AcDbEntity
  8
Sichtbare_Kanten_TC_020513_DIN_
  6
Continuous
 62
     7
100
AcDbLine
 10
91.57992020584385
 20
96.80125616200718
 30
0.0
 11
89.57992020584385
 21
97.95458949534017
 31
0.0
  0
LINE
  5
52D
330
1F
100
AcDbEntity
  8
Sichtbare_Kanten_TC_020513_DIN_
  6
Continuous
 62
     7
100
AcDbLine
 10
89.95480915333684
 20
98.31558298008218
 30
0.0
 11
91.82969810082886
 21
97.23439702036217
 31
0.0
  0
LINE
  5
52E
330
1F
100
AcDbEntity
  8
Sichtbare_Kanten_TC_020513_DIN_
  6
Continuous
 62
     7
100
AcDbLine
 10
89.95480915333684
 20
101.2838267022462
 30
0.0
 11
89.95480915333684
 21
98.31558298008218
 31
0.0
  0
LINE
  5
52F
330
1F
100
AcDbEntity
  8
Sichtbare_Kanten_TC_020513_DIN_
  6
Continuous
 62
     7
100
AcDbLine
 10
89.45480915333684
 20
98.17115992451718
 30
0.0
 11
89.45480915333684
 21
101.2838267022462
 31
0.0
  0
LINE
  5
530
330
1F
100
AcDbEntity
  8
Sichtbare_Kanten_TC_020513_DIN_
  6
Continuous
 62
     7
100
AcDbLine
 10
90.95480915333684
 20
101.1078144335612
 30
0.0
 11
90.95480915333684
 21
98.73749331338118
 31
0.0
  0
LINE
  5
531
330
1F
100
AcDbEntity
  8
Sichtbare_Kanten_TC_020513_DIN_
  6
Continuous
 62
     7
100
AcDbLine
 10
91.70480915333684
 20
100.1033511304532
 30
0.0
 11
90.95480915333684
 21
101.1078144335612
 31
0.0
  0
LINE
  5
532
330
1F
100
AcDbEntity
  8
Sichtbare_Kanten_TC_020513_DIN_
  6
Continuous
 62
     7
100
AcDbLine
 10
92.45480915333684
 20
101.1078144335612
 30
0.0
 11
91.70480915333684
 21
100.1033511304532
 31
0.0
  0
LINE
  5
533
330
1F
100
AcDbEntity
  8
Sichtbare_Kanten_TC_020513_DIN_
  6
Continuous
 62
     7
100
AcDbLine
 10
92.45480915333684
 20
97.59449325785118
 30
0.0
 11
92.45480915333684
 21
101.1078144335612
 31
0.0
  0
LINE
  5
534
330
1F
100
AcDbEntity
  8
Sichtbare_Kanten_TC_020513_DIN_
  6
Continuous
 62
     7
100
AcDbLine
 10
92.95480915333684
 20
101.8604933689132
 30
0.0
 11
92.95480915333684
 21
97.59449325785118
 31
0.0
  0
LINE
  5
535
330
1F
100
AcDbEntity
  8
Sichtbare_Kanten_TC_020513_DIN_
  6
Continuous
 62
     7
100
AcDbLine
 10
91.70480915333684
 20
100.9390667990842
 30
0.0
 11
92.50448916796086
 21
102.0100657709772
 31
0.0
  0
LINE
  5
536
330
1F
100
AcDbEntity
  8
Sichtbare_Kanten_TC_020513_DIN_
  6
Continuous
 62
     7
100
AcDbLine
 10
90.90512913871186
 20
102.0100657709772
 30
0.0
 11
91.70480915333684
 21
100.9390667990842
 31
0.0
  0
LINE
  5
537
330
1F
100
AcDbEntity
  8
Sichtbare_Kanten_TC_020513_DIN_
  6
Continuous
 62
     7
100
AcDbLine
 10
90.45480915333684
 20
98.73749331338118
 30
0.0
 11
90.45480915333684
 21
101.8604933689132
 31
0.0
  0
LINE
  5
538
330
1F
100
AcDbEntity
  8
Sichtbare_Kanten_TC_020513_DIN_
  6
Continuous
 62
     7
100
AcDbLine
 10
52.20480915333684
 20
71.72749331338127
 30
0.0
 11
52.20480915333684
 21
75.72749331338127
 31
0.0
  0
LINE
  5
539
330
1F
100
AcDbEntity
  8
Sichtbare_Kanten_TC_020513_DIN_
  6
Continuous
 62
     7
100
AcDbLine
 10
131.2048091533368
 20
71.72749331338127
 30
0.0
 11
52.20480915333684
 21
71.72749331338127
 31
0.0
  0
LINE
  5
53A
330
1F
100
AcDbEntity
  8
Sichtbare_Kanten_TC_020513_DIN_
  6
Continuous
 62
     7
100
AcDbLine
 10
131.2048091533368
 20
71.72749331338127
 30
0.0
 11
131.2048091533368
 21
75.72749331338127
 31
0.0
  0
LINE
  5
53B
330
1F
100
AcDbEntity
  8
Sichtbare_Kanten_TC_020513_DIN_
  6
Continuous
 62
     7
100
AcDbLine
 10
150.2048091533368
 20
71.72749331338127
 30
0.0
 11
141.2048091533368
 21
71.72749331338127
 31
0.0
  0
LINE
  5
53C
330
1F
100
AcDbEntity
  8
Sichtbare_Kanten_TC_020513_DIN_
  6
Continuous
 62
     7
100
AcDbLine
 10
141.2048091533368
 20
71.72749331338127
 30
0.0
 11
131.2048091533368
 21
71.72749331338127
 31
0.0
  0
LINE
  5
53D
330
1F
100
AcDbEntity
  8
Sichtbare_Kanten_TC_020513_DIN_
  6
Continuous
 62
     7
100
AcDbLine
 10
52.20480915333684
 20
71.72749331338127
 30
0.0
 11
42.20480915333684
 21
71.72749331338127
 31
0.0
  0
LINE
  5
53E
330
1F
100
AcDbEntity
  8
Sichtbare_Kanten_TC_020513_DIN_
  6
Continuous
 62
     7
100
AcDbLine
 10
42.20480915333684
 20
71.72749331338127
 30
0.0
 11
33.20480915333684
 21
71.72749331338127
 31
0.0
  0
LINE
  5
53F
330
1F
100
AcDbEntity
  8
Sichtbare_Kanten_TC_020513_DIN_
  6
Continuous
 62
     7
100
AcDbLine
 10
42.20480915333684
 20
75.72749331338127
 30
0.0
 11
33.20480915333684
 21
75.72749331338127
 31
0.0
  0
LINE
  5
540
330
1F
100
AcDbEntity
  8
Sichtbare_Kanten_TC_020513_DIN_
  6
Continuous
 62
     7
100
AcDbLine
 10
52.20480915333684
 20
75.72749331338127
 30
0.0
 11
42.20480915333684
 21
75.72749331338127
 31
0.0
  0
LINE
  5
541
330
1F
100
AcDbEntity
  8
Sichtbare_Kanten_TC_020513_DIN_
  6
Continuous
 62
     7
100
AcDbLine
 10
150.2048091533368
 20
71.72749331338127
 30
0.0
 11
150.2048091533368
 21
75.72749331338127
 31
0.0
  0
LINE
  5
542
330
1F
100
AcDbEntity
  8
Sichtbare_Kanten_TC_020513_DIN_
  6
Continuous
 62
     7
100
AcDbLine
 10
141.2048091533368
 20
75.72749331338127
 30
0.0
 11
131.2048091533368
 21
75.72749331338127
 31
0.0
  0
LINE
  5
543
330
1F
100
AcDbEntity
  8
Sichtbare_Kanten_TC_020513_DIN_
  6
Continuous
 62
     7
100
AcDbLine
 10
150.2048091533368
 20
75.72749331338127
 30
0.0
 11
141.2048091533368
 21
75.72749331338127
 31
0.0
  0
LINE
  5
544
330
1F
100
AcDbEntity
  8
Sichtbare_Kanten_TC_020513_DIN_
  6
Continuous
 62
     7
100
AcDbLine
 10
141.2048091533368
 20
71.72749331338127
 30
0.0
 11
141.2048091533368
 21
75.72749331338127
 31
0.0
  0
LINE
  5
545
330
1F
100
AcDbEntity
  8
Sichtbare_Kanten_TC_020513_DIN_
  6
Continuous
 62
     7
100
AcDbLine
 10
42.20480915333684
 20
71.72749331338127
 30
0.0
 11
42.20480915333684
 21
75.72749331338127
 31
0.0
  0
LINE
  5
546
330
1F
100
AcDbEntity
  8
Sichtbare_Kanten_TC_020513_DIN_
  6
Continuous
 62
     7
100
AcDbLine
 10
33.20480915333684
 20
71.72749331338127
 30
0.0
 11
33.20480915333684
 21
75.72749331338127
 31
0.0
  0
LINE
  5
547
330
1F
100
AcDbEntity
  8
Sichtbare_Kanten_TC_020513_DIN_
  6
Continuous
 62
     7
100
AcDbLine
 10
132.4548091533368
 20
130.7274933133812
 30
0.0
 11
125.0891423453298
 21
130.7274933133812
 31
0.0
  0
LINE
  5
548
330
1F
100
AcDbEntity
  8
Sichtbare_Kanten_TC_020513_DIN_
  6
Continuous
 62
     7
100
AcDbLine
 10
109.3802538329999
 20
130.7274933133812
 30
0.0
 11
74.02936447367284
 21
130.7274933133812
 31
0.0
  0
LINE
  5
549
330
1F
100
AcDbEntity
  8
Sichtbare_Kanten_TC_020513_DIN_
  6
Continuous
 62
     7
100
AcDbLine
 10
58.32047596134288
 20
130.7274933133812
 30
0.0
 11
50.95480915333684
 21
130.7274933133812
 31
0.0
  0
LINE
  5
54A
330
1F
100
AcDbEntity
  8
Sichtbare_Kanten_TC_020513_DIN_
  6
Continuous
 62
     7
100
AcDbLine
 10
138.4548091533368
 20
75.72749331338127
 30
0.0
 11
138.4548091533368
 21
121.7274933133812
 31
0.0
  0
LINE
  5
54B
330
1F
100
AcDbEntity
  8
Sichtbare_Kanten_TC_020513_DIN_
  6
Continuous
 62
     7
100
AcDbLine
 10
138.4548091533368
 20
128.7274933133812
 30
0.0
 11
138.4548091533368
 21
130.7274933133812
 31
0.0
  0
LINE
  5
54C
330
1F
100
AcDbEntity
  8
Sichtbare_Kanten_TC_020513_DIN_
  6
Continuous
 62
     7
100
AcDbLine
 10
44.95480915333684
 20
75.72749331338127
 30
0.0
 11
44.95480915333684
 21
121.7274933133812
 31
0.0
  0
LINE
  5
54D
330
1F
100
AcDbEntity
  8
Sichtbare_Kanten_TC_020513_DIN_
  6
Continuous
 62
     7
100
AcDbLine
 10
44.95480915333684
 20
128.7274933133812
 30
0.0
 11
44.95480915333684
 21
130.7274933133812
 31
0.0
  0
LINE
  5
54E
330
1F
100
AcDbEntity
  8
Sichtbare_Kanten_TC_020513_DIN_
  6
Continuous
 62
     7
100
AcDbLine
 10
44.95480915333684
 20
130.7274933133812
 30
0.0
 11
50.95480915333684
 21
130.7274933133812
 31
0.0
  0
LINE
  5
54F
330
1F
100
AcDbEntity
  8
Sichtbare_Kanten_TC_020513_DIN_
  6
Continuous
 62
     7
100
AcDbLine
 10
132.4548091533368
 20
130.7274933133812
 30
0.0
 11
138.4548091533368
 21
130.7274933133812
 31
0.0
  0
LINE
  5
550
330
1F
100
AcDbEntity
  8
Sichtbare_Kanten_TC_020513_DIN_
  6
Continuous
 62
     7
100
AcDbLine
 10
33.20480915333684
 20
91.11749331338117
 30
0.0
 11
33.20480915333684
 21
75.72749331338127
 31
0.0
  0
LINE
  5
551
330
1F
100
AcDbEntity
  8
Sichtbare_Kanten_TC_020513_DIN_
  6
Continuous
 62
     7
100
AcDbLine
 10
33.20480915333684
 20
91.11749331338117
 30
0.0
 11
33.20480915333684
 21
106.2574933133812
 31
0.0
  0
LINE
  5
552
330
1F
100
AcDbEntity
  8
Sichtbare_Kanten_TC_020513_DIN_
  6
Continuous
 62
     7
100
AcDbLine
 10
44.95480915333684
 20
106.2574933133812
 30
0.0
 11
33.20480915333684
 21
106.2574933133812
 31
0.0
  0
LINE
  5
553
330
1F
100
AcDbEntity
  8
Sichtbare_Kanten_TC_020513_DIN_
  6
Continuous
 62
     7
100
AcDbLine
 10
150.2048091533368
 20
91.11749331338117
 30
0.0
 11
150.2048091533368
 21
105.6694933133812
 31
0.0
  0
LINE
  5
554
330
1F
100
AcDbEntity
  8
Sichtbare_Kanten_TC_020513_DIN_
  6
Continuous
 62
     7
100
AcDbLine
 10
150.2048091533368
 20
91.11749331338117
 30
0.0
 11
150.2048091533368
 21
76.56549331338127
 31
0.0
  0
LINE
  5
555
330
1F
100
AcDbEntity
  8
Sichtbare_Kanten_TC_020513_DIN_
  6
Continuous
 62
     7
100
AcDbLine
 10
150.2048091533368
 20
106.2574933133812
 30
0.0
 11
138.4548091533368
 21
106.2574933133812
 31
0.0
  0
LINE
  5
556
330
1F
100
AcDbEntity
  8
Sichtbare_Kanten_TC_020513_DIN_
  6
Continuous
 62
     7
100
AcDbLine
 10
45.15480915333689
 20
134.7274933133812
 30
0.0
 11
45.15480915333689
 21
130.7274933133812
 31
0.0
  0
LINE
  5
557
330
1F
100
AcDbEntity
  8
Sichtbare_Kanten_TC_020513_DIN_
  6
Continuous
 62
     7
100
AcDbLine
 10
50.95480915333684
 20
134.7274933133812
 30
0.0
 11
45.15480915333689
 21
134.7274933133812
 31
0.0
  0
LINE
  5
558
330
1F
100
AcDbEntity
  8
Sichtbare_Kanten_TC_020513_DIN_
  6
Continuous
 62
     7
100
AcDbLine
 10
50.95480915333684
 20
134.7274933133812
 30
0.0
 11
53.56764219115786
 21
134.7274933133812
 31
0.0
  0
LINE
  5
559
330
1F
100
AcDbEntity
  8
Sichtbare_Kanten_TC_020513_DIN_
  6
Continuous
 62
     7
100
AcDbLine
 10
64.70480915333684
 20
134.7274933133812
 30
0.0
 11
118.7048091533368
 21
134.7274933133812
 31
0.0
  0
LINE
  5
55A
330
1F
100
AcDbEntity
  8
Sichtbare_Kanten_TC_020513_DIN_
  6
Continuous
 62
     7
100
AcDbLine
 10
129.8419761155149
 20
134.7274933133812
 30
0.0
 11
132.4548091533368
 21
134.7274933133812
 31
0.0
  0
LINE
  5
55B
330
1F
100
AcDbEntity
  8
Sichtbare_Kanten_TC_020513_DIN_
  6
Continuous
 62
     7
100
AcDbLine
 10
138.2548091533359
 20
134.7274933133812
 30
0.0
 11
138.2548091533359
 21
130.7274933133812
 31
0.0
  0
LINE
  5
55C
330
1F
100
AcDbEntity
  8
Sichtbare_Kanten_TC_020513_DIN_
  6
Continuous
 62
     7
100
AcDbLine
 10
138.2548091533359
 20
134.7274933133812
 30
0.0
 11
132.4548091533368
 21
134.7274933133812
 31
0.0
  0
LINE
  5
55D
330
1F
100
AcDbEntity
  8
Sichtbare_Kanten_TC_020513_DIN_
  6
Continuous
 62
     7
100
AcDbLine
 10
147.3936980422249
 20
115.5108560107902
 30
0.0
 11
150.5048091533359
 21
115.5108560107902
 31
0.0
  0
LINE
  5
55E
330
1F
100
AcDbEntity
  8
Sichtbare_Kanten_TC_020513_DIN_
  6
Continuous
 62
     7
100
AcDbLine
 10
147.3936980422249
 20
115.5108560107902
 30
0.0
 11
147.0048091533359
 21
115.5108560107902
 31
0.0
  0
LINE
  5
55F
330
1F
100
AcDbEntity
  8
Sichtbare_Kanten_TC_020513_DIN_
  6
Continuous
 62
     7
100
AcDbLine
 10
140.0048091533359
 20
115.5108560107902
 30
0.0
 11
139.9671542383289
 21
115.5108560107902
 31
0.0
  0
LINE
  5
560
330
1F
100
AcDbEntity
  8
Sichtbare_Kanten_TC_020513_DIN_
  6
Continuous
 62
     7
100
AcDbLine
 10
150.5048091533359
 20
115.5108560107902
 30
0.0
 11
150.5048091533359
 21
116.9108560107902
 31
0.0
  0
LINE
  5
561
330
1F
100
AcDbEntity
  8
Sichtbare_Kanten_TC_020513_DIN_
  6
Continuous
 62
     7
100
AcDbLine
 10
140.0048091533359
 20
116.9108560107902
 30
0.0
 11
139.9671542383289
 21
116.9108560107902
 31
0.0
  0
LINE
  5
562
330
1F
100
AcDbEntity
  8
Sichtbare_Kanten_TC_020513_DIN_
  6
Continuous
 62
     7
100
AcDbLine
 10
147.3936980422249
 20
116.9108560107902
 30
0.0
 11
147.0048091533359
 21
116.9108560107902
 31
0.0
  0
LINE
  5
563
330
1F
100
AcDbEntity
  8
Sichtbare_Kanten_TC_020513_DIN_
  6
Continuous
 62
     7
100
AcDbLine
 10
147.3936980422249
 20
116.9108560107902
 30
0.0
 11
150.5048091533359
 21
116.9108560107902
 31
0.0
  0
LINE
  5
564
330
1F
100
AcDbEntity
  8
Sichtbare_Kanten_TC_020513_DIN_
  6
Continuous
 62
     7
100
AcDbLine
 10
147.0048091533359
 20
118.3108560107902
 30
0.0
 11
147.0048091533359
 21
120.7274933133812
 31
0.0
  0
LINE
  5
565
330
1F
100
AcDbEntity
  8
Sichtbare_Kanten_TC_020513_DIN_
  6
Continuous
 62
     7
100
AcDbLine
 10
139.0048091533359
 20
128.7274933133812
 30
0.0
 11
125.7048091533368
 21
128.7274933133812
 31
0.0
  0
LINE
  5
566
330
1F
100
AcDbEntity
  8
Sichtbare_Kanten_TC_020513_DIN_
  6
Continuous
 62
     7
100
AcDbLine
 10
108.7048091533368
 20
127.7274933133812
 30
0.0
 11
108.7048091533368
 21
114.2274933133812
 31
0.0
  0
LINE
  5
567
330
1F
100
AcDbEntity
  8
Sichtbare_Kanten_TC_020513_DIN_
  6
Continuous
 62
     7
100
AcDbLine
 10
127.7048091533368
 20
121.7274933133812
 30
0.0
 11
139.0048091533359
 21
121.7274933133812
 31
0.0
  0
LINE
  5
568
330
1F
100
AcDbEntity
  8
Sichtbare_Kanten_TC_020513_DIN_
  6
Continuous
 62
     7
100
AcDbLine
 10
140.0048091533359
 20
120.7274933133812
 30
0.0
 11
140.0048091533359
 21
118.3108560107902
 31
0.0
  0
LINE
  5
569
330
1F
100
AcDbEntity
  8
Sichtbare_Kanten_TC_020513_DIN_
  6
Continuous
 62
     7
100
AcDbLine
 10
139.8671542383289
 20
114.5732010957832
 30
0.0
 11
138.4671542383289
 21
114.5732010957832
 31
0.0
  0
LINE
  5
56A
330
1F
100
AcDbEntity
  8
Sichtbare_Kanten_TC_020513_DIN_
  6
Continuous
 62
     7
100
AcDbLine
 10
138.4671542383289
 20
115.4108560107902
 30
0.0
 11
138.4671542383289
 21
114.5732010957832
 31
0.0
  0
LINE
  5
56B
330
1F
100
AcDbEntity
  8
Sichtbare_Kanten_TC_020513_DIN_
  6
Continuous
 62
     7
100
AcDbLine
 10
139.8671542383289
 20
115.4108560107902
 30
0.0
 11
139.8671542383289
 21
114.5732010957832
 31
0.0
  0
LINE
  5
56C
330
1F
100
AcDbEntity
  8
Sichtbare_Kanten_TC_020513_DIN_
  6
Continuous
 62
     7
100
AcDbLine
 10
147.0048091533359
 20
115.5108560107902
 30
0.0
 11
140.0048091533359
 21
115.5108560107902
 31
0.0
  0
LINE
  5
56D
330
1F
100
AcDbEntity
  8
Sichtbare_Kanten_TC_020513_DIN_
  6
Continuous
 62
     7
100
AcDbLine
 10
140.0048091533359
 20
115.5108560107902
 30
0.0
 11
140.0048091533359
 21
118.3108560107902
 31
0.0
  0
LINE
  5
56E
330
1F
100
AcDbEntity
  8
Sichtbare_Kanten_TC_020513_DIN_
  6
Continuous
 62
     7
100
AcDbLine
 10
147.0048091533359
 20
118.3108560107902
 30
0.0
 11
147.0048091533359
 21
115.5108560107902
 31
0.0
  0
LINE
  5
56F
330
1F
100
AcDbEntity
  8
Sichtbare_Kanten_TC_020513_DIN_
  6
Continuous
 62
     7
100
AcDbLine
 10
43.40480915333689
 20
115.5108560107902
 30
0.0
 11
43.44246406834384
 21
115.5108560107902
 31
0.0
  0
LINE
  5
570
330
1F
100
AcDbEntity
  8
Sichtbare_Kanten_TC_020513_DIN_
  6
Continuous
 62
     7
100
AcDbLine
 10
36.01592026444683
 20
115.5108560107902
 30
0.0
 11
36.40480915333689
 21
115.5108560107902
 31
0.0
  0
LINE
  5
571
330
1F
100
AcDbEntity
  8
Sichtbare_Kanten_TC_020513_DIN_
  6
Continuous
 62
     7
100
AcDbLine
 10
36.01592026444683
 20
115.5108560107902
 30
0.0
 11
32.90480915333689
 21
115.5108560107902
 31
0.0
  0
LINE
  5
572
330
1F
100
AcDbEntity
  8
Sichtbare_Kanten_TC_020513_DIN_
  6
Continuous
 62
     7
100
AcDbLine
 10
43.54246406834386
 20
114.5732010957832
 30
0.0
 11
44.94246406834384
 21
114.5732010957832
 31
0.0
  0
LINE
  5
573
330
1F
100
AcDbEntity
  8
Sichtbare_Kanten_TC_020513_DIN_
  6
Continuous
 62
     7
100
AcDbLine
 10
44.94246406834384
 20
115.4108560107902
 30
0.0
 11
44.94246406834384
 21
114.5732010957832
 31
0.0
  0
LINE
  5
574
330
1F
100
AcDbEntity
  8
Sichtbare_Kanten_TC_020513_DIN_
  6
Continuous
 62
     7
100
AcDbLine
 10
43.54246406834386
 20
115.4108560107902
 30
0.0
 11
43.54246406834386
 21
114.5732010957832
 31
0.0
  0
LINE
  5
575
330
1F
100
AcDbEntity
  8
Sichtbare_Kanten_TC_020513_DIN_
  6
Continuous
 62
     7
100
AcDbLine
 10
43.40480915333689
 20
116.9108560107902
 30
0.0
 11
43.44246406834384
 21
116.9108560107902
 31
0.0
  0
LINE
  5
576
330
1F
100
AcDbEntity
  8
Sichtbare_Kanten_TC_020513_DIN_
  6
Continuous
 62
     7
100
AcDbLine
 10
36.01592026444683
 20
116.9108560107902
 30
0.0
 11
32.90480915333689
 21
116.9108560107902
 31
0.0
  0
LINE
  5
577
330
1F
100
AcDbEntity
  8
Sichtbare_Kanten_TC_020513_DIN_
  6
Continuous
 62
     7
100
AcDbLine
 10
36.01592026444683
 20
116.9108560107902
 30
0.0
 11
36.40480915333689
 21
116.9108560107902
 31
0.0
  0
LINE
  5
578
330
1F
100
AcDbEntity
  8
Sichtbare_Kanten_TC_020513_DIN_
  6
Continuous
 62
     7
100
AcDbLine
 10
43.40480915333689
 20
120.7274933133812
 30
0.0
 11
43.40480915333689
 21
118.3108560107902
 31
0.0
  0
LINE
  5
579
330
1F
100
AcDbEntity
  8
Sichtbare_Kanten_TC_020513_DIN_
  6
Continuous
 62
     7
100
AcDbLine
 10
55.70480915333684
 20
121.7274933133812
 30
0.0
 11
44.40480915333689
 21
121.7274933133812
 31
0.0
  0
LINE
  5
57A
330
1F
100
AcDbEntity
  8
Sichtbare_Kanten_TC_020513_DIN_
  6
Continuous
 62
     7
100
AcDbLine
 10
74.70480915333684
 20
127.7274933133812
 30
0.0
 11
74.70480915333684
 21
114.2274933133812
 31
0.0
  0
LINE
  5
57B
330
1F
100
AcDbEntity
  8
Sichtbare_Kanten_TC_020513_DIN_
  6
Continuous
 62
     7
100
AcDbLine
 10
44.40480915333689
 20
128.7274933133812
 30
0.0
 11
57.70480915333684
 21
128.7274933133812
 31
0.0
  0
LINE
  5
57C
330
1F
100
AcDbEntity
  8
Sichtbare_Kanten_TC_020513_DIN_
  6
Continuous
 62
     7
100
AcDbLine
 10
36.40480915333689
 20
118.3108560107902
 30
0.0
 11
36.40480915333689
 21
120.7274933133812
 31
0.0
  0
LINE
  5
57D
330
1F
100
AcDbEntity
  8
Sichtbare_Kanten_TC_020513_DIN_
  6
Continuous
 62
     7
100
AcDbLine
 10
32.90480915333689
 20
115.5108560107902
 30
0.0
 11
32.90480915333689
 21
116.9108560107902
 31
0.0
  0
LINE
  5
57E
330
1F
100
AcDbEntity
  8
Sichtbare_Kanten_TC_020513_DIN_
  6
Continuous
 62
     7
100
AcDbLine
 10
45.67936362690688
 20
147.5709545821712
 30
0.0
 11
42.33817185074588
 21
145.5237348975732
 31
0.0
  0
LINE
  5
57F
330
1F
100
AcDbEntity
  8
Sichtbare_Kanten_TC_020513_DIN_
  6
Continuous
 62
     7
100
AcDbLine
 10
72.20480915333684
 20
117.5898383983742
 30
0.0
 11
72.20480915333684
 21
117.6288811322472
 31
0.0
  0
LINE
  5
580
330
1F
100
AcDbEntity
  8
Sichtbare_Kanten_TC_020513_DIN_
  6
Continuous
 62
     7
100
AcDbLine
 10
64.70480915333684
 20
134.0520486337182
 30
0.0
 11
64.70480915333684
 21
135.7274933133812
 31
0.0
  0
LINE
  5
581
330
1F
100
AcDbEntity
  8
Sichtbare_Kanten_TC_020513_DIN_
  6
Continuous
 62
     7
100
AcDbLine
 10
64.70480915333684
 20
135.7274933133812
 30
0.0
 11
62.47593121699987
 21
138.9426278440802
 31
0.0
  0
LINE
  5
582
330
1F
100
AcDbEntity
  8
Sichtbare_Kanten_TC_020513_DIN_
  6
Continuous
 62
     7
100
AcDbLine
 10
62.41780719766683
 20
139.4007035803952
 30
0.0
 11
63.48345220615988
 21
142.2863857165092
 31
0.0
  0
LINE
  5
583
330
1F
100
AcDbEntity
  8
Sichtbare_Kanten_TC_020513_DIN_
  6
Continuous
 62
     7
100
AcDbLine
 10
71.96509083416487
 20
152.7274933133812
 30
0.0
 11
63.96509083416487
 21
152.7274933133812
 31
0.0
  0
LINE
  5
584
330
1F
100
AcDbEntity
  8
Sichtbare_Kanten_TC_020513_DIN_
  6
Continuous
 62
     7
100
AcDbLine
 10
42.33817185074588
 20
135.0884786483762
 30
0.0
 11
43.70480915333684
 21
135.0884786483762
 31
0.0
  0
LINE
  5
585
330
1F
100
AcDbEntity
  8
Sichtbare_Kanten_TC_020513_DIN_
  6
Continuous
 62
     7
100
AcDbLine
 10
44.48910867952185
 20
135.4680963039912
 30
0.0
 11
47.31265939024388
 21
139.0376844855742
 31
0.0
  0
LINE
  5
586
330
1F
100
AcDbEntity
  8
Sichtbare_Kanten_TC_020513_DIN_
  6
Continuous
 62
     7
100
AcDbLine
 10
48.01500032552883
 20
139.1196430764742
 30
0.0
 11
58.12875721476388
 21
131.1196430764742
 31
0.0
  0
LINE
  5
587
330
1F
100
AcDbEntity
  8
Sichtbare_Kanten_TC_020513_DIN_
  6
Continuous
 62
     7
100
AcDbLine
 10
58.31666339161689
 20
130.7710711847552
 30
0.0
 11
58.44376374694184
 21
129.3183074756842
 31
0.0
  0
LINE
  5
588
330
1F
100
AcDbEntity
  8
Sichtbare_Kanten_TC_020513_DIN_
  6
Continuous
 62
     7
100
AcDbLine
 10
69.26866849170187
 20
117.7274933133812
 30
0.0
 11
69.30480915333584
 21
117.7274933133812
 31
0.0
  0
LINE
  5
589
330
1F
100
AcDbEntity
  8
Sichtbare_Kanten_TC_020513_DIN_
  6
Continuous
 62
     7
100
AcDbLine
 10
69.30480915333584
 20
117.7274933133812
 30
0.0
 11
69.30480915333584
 21
117.5898383983742
 31
0.0
  0
LINE
  5
58A
330
1F
100
AcDbEntity
  8
Sichtbare_Kanten_TC_020513_DIN_
  6
Continuous
 62
     7
100
AcDbLine
 10
40.93817185074585
 20
134.9031834096521
 30
0.0
 11
40.93817185074585
 21
133.5283016198792
 31
0.0
  0
LINE
  5
58B
330
1F
100
AcDbEntity
  8
Sichtbare_Kanten_TC_020513_DIN_
  6
Continuous
 62
     7
100
AcDbLine
 10
39.53817185074587
 20
133.5283016198792
 30
0.0
 11
39.53817185074587
 21
134.9031834096521
 31
0.0
  0
LINE
  5
58C
330
1F
100
AcDbEntity
  8
Sichtbare_Kanten_TC_020513_DIN_
  6
Continuous
 62
     7
100
AcDbLine
 10
40.93817185074585
 20
135.0884786483762
 30
0.0
 11
40.93817185074585
 21
134.9031834096521
 31
0.0
  0
LINE
  5
58D
330
1F
100
AcDbEntity
  8
Sichtbare_Kanten_TC_020513_DIN_
  6
Continuous
 62
     7
100
AcDbLine
 10
39.53817185074587
 20
134.9031834096521
 30
0.0
 11
39.53817185074587
 21
135.0884786483762
 31
0.0
  0
LINE
  5
58E
330
1F
100
AcDbEntity
  8
Sichtbare_Kanten_TC_020513_DIN_
  6
Continuous
 62
     7
100
AcDbLine
 10
33.20389645794984
 20
146.3051159509672
 30
0.0
 11
31.72153454815486
 21
146.3051159509672
 31
0.0
  0
LINE
  5
58F
330
1F
100
AcDbEntity
  8
Sichtbare_Kanten_TC_020513_DIN_
  6
Continuous
 62
     7
100
AcDbLine
 10
31.72153454815486
 20
144.9051159509671
 30
0.0
 11
31.72153454815486
 21
146.3051159509672
 31
0.0
  0
LINE
  5
590
330
1F
100
AcDbEntity
  8
Sichtbare_Kanten_TC_020513_DIN_
  6
Continuous
 62
     7
100
AcDbLine
 10
31.72153454815486
 20
144.9051159509671
 30
0.0
 11
33.20389645794984
 21
144.9051159509671
 31
0.0
  0
LINE
  5
591
330
1F
100
AcDbEntity
  8
Sichtbare_Kanten_TC_020513_DIN_
  6
Continuous
 62
     7
100
AcDbLine
 10
33.20389645794984
 20
146.3051159509672
 30
0.0
 11
38.13817185074583
 21
146.3051159509672
 31
0.0
  0
LINE
  5
592
330
1F
100
AcDbEntity
  8
Sichtbare_Kanten_TC_020513_DIN_
  6
Continuous
 62
     7
100
AcDbLine
 10
38.13817185074583
 20
144.9051159509671
 30
0.0
 11
33.20389645794984
 21
144.9051159509671
 31
0.0
  0
LINE
  5
593
330
1F
100
AcDbEntity
  8
Sichtbare_Kanten_TC_020513_DIN_
  6
Continuous
 62
     7
100
AcDbLine
 10
69.30480915333584
 20
117.4898383983742
 30
0.0
 11
69.30480915333584
 21
116.0898383983742
 31
0.0
  0
LINE
  5
594
330
1F
100
AcDbEntity
  8
Sichtbare_Kanten_TC_020513_DIN_
  6
Continuous
 62
     7
100
AcDbLine
 10
69.30480915333584
 20
116.0898383983742
 30
0.0
 11
69.80480915333584
 21
116.0898383983742
 31
0.0
  0
LINE
  5
595
330
1F
100
AcDbEntity
  8
Sichtbare_Kanten_TC_020513_DIN_
  6
Continuous
 62
     7
100
AcDbLine
 10
69.80480915333584
 20
117.4898383983742
 30
0.0
 11
69.30480915333584
 21
117.4898383983742
 31
0.0
  0
LINE
  5
596
330
1F
100
AcDbEntity
  8
Sichtbare_Kanten_TC_020513_DIN_
  6
Continuous
 62
     7
100
AcDbLine
 10
71.70480915333684
 20
116.0898383983742
 30
0.0
 11
69.80480915333584
 21
116.0898383983742
 31
0.0
  0
LINE
  5
597
330
1F
100
AcDbEntity
  8
Sichtbare_Kanten_TC_020513_DIN_
  6
Continuous
 62
     7
100
AcDbLine
 10
69.80480915333584
 20
117.4898383983742
 30
0.0
 11
71.70480915333684
 21
117.4898383983742
 31
0.0
  0
LINE
  5
598
330
1F
100
AcDbEntity
  8
Sichtbare_Kanten_TC_020513_DIN_
  6
Continuous
 62
     7
100
AcDbLine
 10
71.70480915333684
 20
116.0898383983742
 30
0.0
 11
72.20480915333684
 21
116.0898383983742
 31
0.0
  0
LINE
  5
599
330
1F
100
AcDbEntity
  8
Sichtbare_Kanten_TC_020513_DIN_
  6
Continuous
 62
     7
100
AcDbLine
 10
72.20480915333684
 20
117.4898383983742
 30
0.0
 11
72.20480915333684
 21
116.0898383983742
 31
0.0
  0
LINE
  5
59A
330
1F
100
AcDbEntity
  8
Sichtbare_Kanten_TC_020513_DIN_
  6
Continuous
 62
     7
100
AcDbLine
 10
72.20480915333684
 20
117.4898383983742
 30
0.0
 11
71.70480915333684
 21
117.4898383983742
 31
0.0
  0
LINE
  5
59B
330
1F
100
AcDbEntity
  8
Sichtbare_Kanten_TC_020513_DIN_
  6
Continuous
 62
     7
100
AcDbLine
 10
37.48076478021284
 20
125.4931231747022
 30
0.0
 11
38.10723799380088
 21
126.8365993167562
 31
0.0
  0
LINE
  5
59C
330
1F
100
AcDbEntity
  8
Sichtbare_Kanten_TC_020513_DIN_
  6
Continuous
 62
     7
100
AcDbLine
 10
36.83840709194988
 20
127.4282648831932
 30
0.0
 11
36.21193387836183
 21
126.0847887411392
 31
0.0
  0
LINE
  5
59D
330
1F
100
AcDbEntity
  8
Sichtbare_Kanten_TC_020513_DIN_
  6
Continuous
 62
     7
100
AcDbLine
 10
36.21193387836183
 20
126.0847887411392
 30
0.0
 11
37.48076478021284
 21
125.4931231747022
 31
0.0
  0
LINE
  5
59E
330
1F
100
AcDbEntity
  8
Sichtbare_Kanten_TC_020513_DIN_
  6
Continuous
 62
     7
100
AcDbLine
 10
36.83840709194988
 20
127.4282648831932
 30
0.0
 11
39.40700275259684
 21
132.9366360534422
 31
0.0
  0
LINE
  5
59F
330
1F
100
AcDbEntity
  8
Sichtbare_Kanten_TC_020513_DIN_
  6
Continuous
 62
     7
100
AcDbLine
 10
40.67583365444784
 20
132.3449704870052
 30
0.0
 11
38.10723799380088
 21
126.8365993167562
 31
0.0
  0
LINE
  5
5A0
330
1F
100
AcDbEntity
  8
Sichtbare_Kanten_TC_020513_DIN_
  6
Continuous
 62
     7
100
AcDbLine
 10
43.40480915333689
 20
115.5108560107902
 30
0.0
 11
36.40480915333689
 21
115.5108560107902
 31
0.0
  0
LINE
  5
5A1
330
1F
100
AcDbEntity
  8
Sichtbare_Kanten_TC_020513_DIN_
  6
Continuous
 62
     7
100
AcDbLine
 10
36.40480915333689
 20
115.5108560107902
 30
0.0
 11
36.40480915333689
 21
118.3108560107902
 31
0.0
  0
LINE
  5
5A2
330
1F
100
AcDbEntity
  8
Sichtbare_Kanten_TC_020513_DIN_
  6
Continuous
 62
     7
100
AcDbLine
 10
43.40480915333689
 20
118.3108560107902
 30
0.0
 11
43.40480915333689
 21
115.5108560107902
 31
0.0
  0
LINE
  5
5A3
330
1F
100
AcDbEntity
  8
Sichtbare_Kanten_TC_020513_DIN_
  6
Continuous
 62
     7
100
AcDbLine
 10
143.4443264653129
 20
132.6763015758872
 30
0.0
 11
142.7337846522249
 21
132.3449704870052
 31
0.0
  0
LINE
  5
5A4
330
1F
100
AcDbEntity
  8
Sichtbare_Kanten_TC_020513_DIN_
  6
Continuous
 62
     7
100
AcDbLine
 10
144.0026155540759
 20
132.9366360534422
 30
0.0
 11
143.4443264653129
 21
132.6763015758872
 31
0.0
  0
LINE
  5
5A5
330
1F
100
AcDbEntity
  8
Sichtbare_Kanten_TC_020513_DIN_
  6
Continuous
 62
     7
100
AcDbLine
 10
143.2554426029898
 20
133.5283016198792
 30
0.0
 11
143.8714464559268
 21
133.5283016198792
 31
0.0
  0
LINE
  5
5A6
330
1F
100
AcDbEntity
  8
Sichtbare_Kanten_TC_020513_DIN_
  6
Continuous
 62
     7
100
AcDbLine
 10
142.4714464559269
 20
133.5283016198792
 30
0.0
 11
143.2554426029898
 21
133.5283016198792
 31
0.0
  0
LINE
  5
5A7
330
1F
100
AcDbEntity
  8
Sichtbare_Kanten_TC_020513_DIN_
  6
Continuous
 62
     7
100
AcDbLine
 10
111.2048091533368
 20
117.5898383983742
 30
0.0
 11
111.2048091533368
 21
117.4898383983742
 31
0.0
  0
LINE
  5
5A8
330
1F
100
AcDbEntity
  8
Sichtbare_Kanten_TC_020513_DIN_
  6
Continuous
 62
     7
100
AcDbLine
 10
114.1048091533369
 20
117.4898383983742
 30
0.0
 11
114.1048091533369
 21
117.5898383983742
 31
0.0
  0
LINE
  5
5A9
330
1F
100
AcDbEntity
  8
Sichtbare_Kanten_TC_020513_DIN_
  6
Continuous
 62
     7
100
AcDbLine
 10
114.1048091533369
 20
117.7274933133812
 30
0.0
 11
114.1048091533369
 21
117.5898383983742
 31
0.0
  0
LINE
  5
5AA
330
1F
100
AcDbEntity
  8
Sichtbare_Kanten_TC_020513_DIN_
  6
Continuous
 62
     7
100
AcDbLine
 10
114.1409498149708
 20
117.7274933133812
 30
0.0
 11
114.1048091533369
 21
117.7274933133812
 31
0.0
  0
LINE
  5
5AB
330
1F
100
AcDbEntity
  8
Sichtbare_Kanten_TC_020513_DIN_
  6
Continuous
 62
     7
100
AcDbLine
 10
125.0929549150559
 20
130.7710711847552
 30
0.0
 11
124.9658545597309
 21
129.3183074756842
 31
0.0
  0
LINE
  5
5AC
330
1F
100
AcDbEntity
  8
Sichtbare_Kanten_TC_020513_DIN_
  6
Continuous
 62
     7
100
AcDbLine
 10
135.3946179811439
 20
139.1196430764742
 30
0.0
 11
125.2808610919088
 21
131.1196430764742
 31
0.0
  0
LINE
  5
5AD
330
1F
100
AcDbEntity
  8
Sichtbare_Kanten_TC_020513_DIN_
  6
Continuous
 62
     7
100
AcDbLine
 10
138.9205096271509
 20
135.4680963039912
 30
0.0
 11
136.0969589164288
 21
139.0376844855742
 31
0.0
  0
LINE
  5
5AE
330
1F
100
AcDbEntity
  8
Sichtbare_Kanten_TC_020513_DIN_
  6
Continuous
 62
     7
100
AcDbLine
 10
141.0714464559268
 20
135.0884786483762
 30
0.0
 11
139.7048091533368
 21
135.0884786483762
 31
0.0
  0
LINE
  5
5AF
330
1F
100
AcDbEntity
  8
Sichtbare_Kanten_TC_020513_DIN_
  6
Continuous
 62
     7
100
AcDbLine
 10
137.7302546797658
 20
147.5709545821712
 30
0.0
 11
141.0714464559268
 21
145.5237348975732
 31
0.0
  0
LINE
  5
5B0
330
1F
100
AcDbEntity
  8
Sichtbare_Kanten_TC_020513_DIN_
  6
Continuous
 62
     7
100
AcDbLine
 10
111.4445274725078
 20
152.7274933133812
 30
0.0
 11
119.4445274725078
 21
152.7274933133812
 31
0.0
  0
LINE
  5
5B1
330
1F
100
AcDbEntity
  8
Sichtbare_Kanten_TC_020513_DIN_
  6
Continuous
 62
     7
100
AcDbLine
 10
120.9918111090059
 20
139.4007035803952
 30
0.0
 11
119.9261661005128
 21
142.2863857165092
 31
0.0
  0
LINE
  5
5B2
330
1F
100
AcDbEntity
  8
Sichtbare_Kanten_TC_020513_DIN_
  6
Continuous
 62
     7
100
AcDbLine
 10
118.7048091533368
 20
135.7274933133812
 30
0.0
 11
120.9336870896728
 21
138.9426278440802
 31
0.0
  0
LINE
  5
5B3
330
1F
100
AcDbEntity
  8
Sichtbare_Kanten_TC_020513_DIN_
  6
Continuous
 62
     7
100
AcDbLine
 10
118.7048091533368
 20
134.0520486337182
 30
0.0
 11
118.7048091533368
 21
135.7274933133812
 31
0.0
  0
LINE
  5
5B4
330
1F
100
AcDbEntity
  8
Sichtbare_Kanten_TC_020513_DIN_
  6
Continuous
 62
     7
100
AcDbLine
 10
111.2048091533368
 20
117.5898383983742
 30
0.0
 11
111.2048091533368
 21
117.6288811322472
 31
0.0
  0
LINE
  5
5B5
330
1F
100
AcDbEntity
  8
Sichtbare_Kanten_TC_020513_DIN_
  6
Continuous
 62
     7
100
AcDbLine
 10
143.8714464559268
 20
133.5283016198792
 30
0.0
 11
143.8714464559268
 21
134.9031834096521
 31
0.0
  0
LINE
  5
5B6
330
1F
100
AcDbEntity
  8
Sichtbare_Kanten_TC_020513_DIN_
  6
Continuous
 62
     7
100
AcDbLine
 10
142.4714464559269
 20
134.9031834096521
 30
0.0
 11
142.4714464559269
 21
133.5283016198792
 31
0.0
  0
LINE
  5
5B7
330
1F
100
AcDbEntity
  8
Sichtbare_Kanten_TC_020513_DIN_
  6
Continuous
 62
     7
100
AcDbLine
 10
142.4714464559269
 20
135.0884786483762
 30
0.0
 11
142.4714464559269
 21
134.9031834096521
 31
0.0
  0
LINE
  5
5B8
330
1F
100
AcDbEntity
  8
Sichtbare_Kanten_TC_020513_DIN_
  6
Continuous
 62
     7
100
AcDbLine
 10
143.8714464559268
 20
134.9031834096521
 30
0.0
 11
143.8714464559268
 21
135.0884786483762
 31
0.0
  0
LINE
  5
5B9
330
1F
100
AcDbEntity
  8
Sichtbare_Kanten_TC_020513_DIN_
  6
Continuous
 62
     7
100
AcDbLine
 10
150.2057218487229
 20
146.3051159509672
 30
0.0
 11
151.6880837585179
 21
146.3051159509672
 31
0.0
  0
LINE
  5
5BA
330
1F
100
AcDbEntity
  8
Sichtbare_Kanten_TC_020513_DIN_
  6
Continuous
 62
     7
100
AcDbLine
 10
151.6880837585179
 20
144.9051159509671
 30
0.0
 11
150.2057218487229
 21
144.9051159509671
 31
0.0
  0
LINE
  5
5BB
330
1F
100
AcDbEntity
  8
Sichtbare_Kanten_TC_020513_DIN_
  6
Continuous
 62
     7
100
AcDbLine
 10
151.6880837585179
 20
144.9051159509671
 30
0.0
 11
151.6880837585179
 21
146.3051159509672
 31
0.0
  0
LINE
  5
5BC
330
1F
100
AcDbEntity
  8
Sichtbare_Kanten_TC_020513_DIN_
  6
Continuous
 62
     7
100
AcDbLine
 10
145.2714464559269
 20
144.9051159509671
 30
0.0
 11
150.2057218487229
 21
144.9051159509671
 31
0.0
  0
LINE
  5
5BD
330
1F
100
AcDbEntity
  8
Sichtbare_Kanten_TC_020513_DIN_
  6
Continuous
 62
     7
100
AcDbLine
 10
150.2057218487229
 20
146.3051159509672
 30
0.0
 11
145.2714464559269
 21
146.3051159509672
 31
0.0
  0
LINE
  5
5BE
330
1F
100
AcDbEntity
  8
Sichtbare_Kanten_TC_020513_DIN_
  6
Continuous
 62
     7
100
AcDbLine
 10
114.1048091533369
 20
116.0898383983742
 30
0.0
 11
113.6048091533369
 21
116.0898383983742
 31
0.0
  0
LINE
  5
5BF
330
1F
100
AcDbEntity
  8
Sichtbare_Kanten_TC_020513_DIN_
  6
Continuous
 62
     7
100
AcDbLine
 10
114.1048091533369
 20
117.4898383983742
 30
0.0
 11
114.1048091533369
 21
116.0898383983742
 31
0.0
  0
LINE
  5
5C0
330
1F
100
AcDbEntity
  8
Sichtbare_Kanten_TC_020513_DIN_
  6
Continuous
 62
     7
100
AcDbLine
 10
113.6048091533369
 20
117.4898383983742
 30
0.0
 11
114.1048091533369
 21
117.4898383983742
 31
0.0
  0
LINE
  5
5C1
330
1F
100
AcDbEntity
  8
Sichtbare_Kanten_TC_020513_DIN_
  6
Continuous
 62
     7
100
AcDbLine
 10
111.7048091533368
 20
116.0898383983742
 30
0.0
 11
113.6048091533369
 21
116.0898383983742
 31
0.0
  0
LINE
  5
5C2
330
1F
100
AcDbEntity
  8
Sichtbare_Kanten_TC_020513_DIN_
  6
Continuous
 62
     7
100
AcDbLine
 10
113.6048091533369
 20
117.4898383983742
 30
0.0
 11
111.7048091533368
 21
117.4898383983742
 31
0.0
  0
LINE
  5
5C3
330
1F
100
AcDbEntity
  8
Sichtbare_Kanten_TC_020513_DIN_
  6
Continuous
 62
     7
100
AcDbLine
 10
111.7048091533368
 20
116.0898383983742
 30
0.0
 11
111.2048091533368
 21
116.0898383983742
 31
0.0
  0
LINE
  5
5C4
330
1F
100
AcDbEntity
  8
Sichtbare_Kanten_TC_020513_DIN_
  6
Continuous
 62
     7
100
AcDbLine
 10
111.2048091533368
 20
117.4898383983742
 30
0.0
 11
111.7048091533368
 21
117.4898383983742
 31
0.0
  0
LINE
  5
5C5
330
1F
100
AcDbEntity
  8
Sichtbare_Kanten_TC_020513_DIN_
  6
Continuous
 62
     7
100
AcDbLine
 10
111.2048091533368
 20
117.4898383983742
 30
0.0
 11
111.2048091533368
 21
116.0898383983742
 31
0.0
  0
LINE
  5
5C6
330
1F
100
AcDbEntity
  8
Sichtbare_Kanten_TC_020513_DIN_
  6
Continuous
 62
     7
100
AcDbLine
 10
145.9288535264599
 20
125.4931231747022
 30
0.0
 11
145.3023803128718
 21
126.8365993167562
 31
0.0
  0
LINE
  5
5C7
330
1F
100
AcDbEntity
  8
Sichtbare_Kanten_TC_020513_DIN_
  6
Continuous
 62
     7
100
AcDbLine
 10
147.1976844283119
 20
126.0847887411392
 30
0.0
 11
145.9288535264599
 21
125.4931231747022
 31
0.0
  0
LINE
  5
5C8
330
1F
100
AcDbEntity
  8
Sichtbare_Kanten_TC_020513_DIN_
  6
Continuous
 62
     7
100
AcDbLine
 10
146.5712112147228
 20
127.4282648831932
 30
0.0
 11
147.1976844283119
 21
126.0847887411392
 31
0.0
  0
LINE
  5
5C9
330
1F
100
AcDbEntity
  8
Sichtbare_Kanten_TC_020513_DIN_
  6
Continuous
 62
     7
100
AcDbLine
 10
142.7337846522249
 20
132.3449704870052
 30
0.0
 11
145.3023803128718
 21
126.8365993167562
 31
0.0
  0
LINE
  5
5CA
330
1F
100
AcDbEntity
  8
Sichtbare_Kanten_TC_020513_DIN_
  6
Continuous
 62
     7
100
AcDbLine
 10
146.5712112147228
 20
127.4282648831932
 30
0.0
 11
144.0026155540759
 21
132.9366360534422
 31
0.0
  0
LINE
  5
5CB
330
1F
100
AcDbEntity
  8
Sichtbare_Kanten_TC_020513_DIN_
  6
Continuous
 62
     7
100
AcDbLine
 10
145.2714464559269
 20
145.5211170812482
 30
0.0
 11
145.2714464559269
 21
144.9051159509671
 31
0.0
  0
LINE
  5
5CC
330
1F
100
AcDbEntity
  8
Sichtbare_Kanten_TC_020513_DIN_
  6
Continuous
 62
     7
100
AcDbLine
 10
145.2714464559269
 20
146.3051159509672
 30
0.0
 11
145.2714464559269
 21
145.5211170812482
 31
0.0
  0
LINE
  5
5CD
330
1F
100
AcDbEntity
  8
Sichtbare_Kanten_TC_020513_DIN_
  6
Continuous
 62
     7
100
AcDbLine
 10
142.5639451035129
 20
145.0884786483762
 30
0.0
 11
143.5115953902819
 21
145.0884786483762
 31
0.0
  0
LINE
  5
5CE
330
1F
100
AcDbEntity
  8
Sichtbare_Kanten_TC_020513_DIN_
  6
Continuous
 62
     7
100
AcDbLine
 10
143.8714464559268
 20
135.0884786483762
 30
0.0
 11
141.0714464559268
 21
135.0884786483762
 31
0.0
  0
LINE
  5
5CF
330
1F
100
AcDbEntity
  8
Sichtbare_Kanten_TC_020513_DIN_
  6
Continuous
 62
     7
100
AcDbLine
 10
143.8714464559268
 20
144.4126887681462
 30
0.0
 11
143.8714464559268
 21
135.0884786483762
 31
0.0
  0
LINE
  5
5D0
330
1F
100
AcDbEntity
  8
Sichtbare_Kanten_TC_020513_DIN_
  6
Continuous
 62
     7
100
AcDbLine
 10
39.96529184135886
 20
132.6763015758882
 30
0.0
 11
39.40700275259684
 21
132.9366360534422
 31
0.0
  0
LINE
  5
5D1
330
1F
100
AcDbEntity
  8
Sichtbare_Kanten_TC_020513_DIN_
  6
Continuous
 62
     7
100
AcDbLine
 10
40.67583365444784
 20
132.3449704870052
 30
0.0
 11
39.96529184135886
 21
132.6763015758882
 31
0.0
  0
LINE
  5
5D2
330
1F
100
AcDbEntity
  8
Sichtbare_Kanten_TC_020513_DIN_
  6
Continuous
 62
     7
100
AcDbLine
 10
40.15417570368288
 20
133.5283016198792
 30
0.0
 11
40.93817185074585
 21
133.5283016198792
 31
0.0
  0
LINE
  5
5D3
330
1F
100
AcDbEntity
  8
Sichtbare_Kanten_TC_020513_DIN_
  6
Continuous
 62
     7
100
AcDbLine
 10
39.53817185074587
 20
133.5283016198792
 30
0.0
 11
40.15417570368288
 21
133.5283016198792
 31
0.0
  0
LINE
  5
5D4
330
1F
100
AcDbEntity
  8
Sichtbare_Kanten_TC_020513_DIN_
  6
Continuous
 62
     7
100
AcDbLine
 10
69.30480915333584
 20
117.5898383983742
 30
0.0
 11
69.30480915333584
 21
117.4898383983742
 31
0.0
  0
LINE
  5
5D5
330
1F
100
AcDbEntity
  8
Sichtbare_Kanten_TC_020513_DIN_
  6
Continuous
 62
     7
100
AcDbLine
 10
72.20480915333684
 20
117.4898383983742
 30
0.0
 11
72.20480915333684
 21
117.5898383983742
 31
0.0
  0
LINE
  5
5D6
330
1F
100
AcDbEntity
  8
Sichtbare_Kanten_TC_020513_DIN_
  6
Continuous
 62
     7
100
AcDbLine
 10
38.13817185074583
 20
145.5211170812491
 30
0.0
 11
38.13817185074583
 21
146.3051159509672
 31
0.0
  0
LINE
  5
5D7
330
1F
100
AcDbEntity
  8
Sichtbare_Kanten_TC_020513_DIN_
  6
Continuous
 62
     7
100
AcDbLine
 10
38.13817185074583
 20
144.9051159509671
 30
0.0
 11
38.13817185074583
 21
145.5211170812491
 31
0.0
  0
LINE
  5
5D8
330
1F
100
AcDbEntity
  8
Sichtbare_Kanten_TC_020513_DIN_
  6
Continuous
 62
     7
100
AcDbLine
 10
39.89802291639086
 20
145.0884786483762
 30
0.0
 11
40.84567320315983
 21
145.0884786483762
 31
0.0
  0
LINE
  5
5D9
330
1F
100
AcDbEntity
  8
Sichtbare_Kanten_TC_020513_DIN_
  6
Continuous
 62
     7
100
AcDbLine
 10
39.53817185074587
 20
135.0884786483762
 30
0.0
 11
39.53817185074587
 21
144.4126887681462
 31
0.0
  0
LINE
  5
5DA
330
1F
100
AcDbEntity
  8
Sichtbare_Kanten_TC_020513_DIN_
  6
Continuous
 62
     7
100
AcDbLine
 10
42.33817185074588
 20
135.0884786483762
 30
0.0
 11
39.53817185074587
 21
135.0884786483762
 31
0.0
  0
LINE
  5
5DB
330
1F
100
AcDbEntity
  8
Sichtbare_Kanten_TC_020513_DIN_
  6
Continuous
 62
     7
100
AcDbLine
 10
268.9882184934788
 20
71.72749331338127
 30
0.0
 11
211.9882184934788
 21
71.72749331338127
 31
0.0
  0
LINE
  5
5DC
330
1F
100
AcDbEntity
  8
Sichtbare_Kanten_TC_020513_DIN_
  6
Continuous
 62
     7
100
AcDbLine
 10
225.3482184934788
 20
75.72749331338127
 30
0.0
 11
211.9882184934788
 21
75.72749331338127
 31
0.0
  0
LINE
  5
5DD
330
1F
100
AcDbEntity
  8
Sichtbare_Kanten_TC_020513_DIN_
  6
Continuous
 62
     7
100
AcDbLine
 10
268.9882184934788
 20
75.72749331338127
 30
0.0
 11
255.6282184934788
 21
75.72749331338127
 31
0.0
  0
LINE
  5
5DE
330
1F
100
AcDbEntity
  8
Sichtbare_Kanten_TC_020513_DIN_
  6
Continuous
 62
     7
100
AcDbLine
 10
211.9882184934788
 20
71.72749331338127
 30
0.0
 11
211.9882184934788
 21
75.72749331338127
 31
0.0
  0
LINE
  5
5DF
330
1F
100
AcDbEntity
  8
Sichtbare_Kanten_TC_020513_DIN_
  6
Continuous
 62
     7
100
AcDbLine
 10
268.9882184934788
 20
71.72749331338127
 30
0.0
 11
268.9882184934788
 21
75.72749331338127
 31
0.0
  0
LINE
  5
5E0
330
1F
100
AcDbEntity
  8
Sichtbare_Kanten_TC_020513_DIN_
  6
Continuous
 62
     7
100
AcDbLine
 10
262.7382184934849
 20
75.72749331338127
 30
0.0
 11
262.7382184934849
 21
115.5108560107902
 31
0.0
  0
LINE
  5
5E1
330
1F
100
AcDbEntity
  8
Sichtbare_Kanten_TC_020513_DIN_
  6
Continuous
 62
     7
100
AcDbLine
 10
262.7382184934849
 20
116.9108560107902
 30
0.0
 11
262.7382184934849
 21
130.7274933133812
 31
0.0
  0
LINE
  5
5E2
330
1F
100
AcDbEntity
  8
Sichtbare_Kanten_TC_020513_DIN_
  6
Continuous
 62
     7
100
AcDbLine
 10
218.2382184934838
 20
130.7274933133812
 30
0.0
 11
224.2382184934828
 21
130.7274933133812
 31
0.0
  0
LINE
  5
5E3
330
1F
100
AcDbEntity
  8
Sichtbare_Kanten_TC_020513_DIN_
  6
Continuous
 62
     7
100
AcDbLine
 10
218.2382184934838
 20
75.72749331338127
 30
0.0
 11
218.2382184934838
 21
115.5108560107902
 31
0.0
  0
LINE
  5
5E4
330
1F
100
AcDbEntity
  8
Sichtbare_Kanten_TC_020513_DIN_
  6
Continuous
 62
     7
100
AcDbLine
 10
218.2382184934838
 20
116.9108560107902
 30
0.0
 11
218.2382184934838
 21
130.7274933133812
 31
0.0
  0
LINE
  5
5E5
330
1F
100
AcDbEntity
  8
Sichtbare_Kanten_TC_020513_DIN_
  6
Continuous
 62
     7
100
AcDbLine
 10
256.7382184934828
 20
130.7274933133812
 30
0.0
 11
255.6977949804858
 21
130.7274933133812
 31
0.0
  0
LINE
  5
5E6
330
1F
100
AcDbEntity
  8
Sichtbare_Kanten_TC_020513_DIN_
  6
Continuous
 62
     7
100
AcDbLine
 10
225.2786420064789
 20
130.7274933133812
 30
0.0
 11
224.2382184934828
 21
130.7274933133812
 31
0.0
  0
LINE
  5
5E7
330
1F
100
AcDbEntity
  8
Sichtbare_Kanten_TC_020513_DIN_
  6
Continuous
 62
     7
100
AcDbLine
 10
256.7382184934828
 20
130.7274933133812
 30
0.0
 11
262.7382184934849
 21
130.7274933133812
 31
0.0
  0
LINE
  5
5E8
330
1F
100
AcDbEntity
  8
Sichtbare_Kanten_TC_020513_DIN_
  6
Continuous
 62
     7
100
AcDbLine
 10
255.6282184934788
 20
91.11749331338117
 30
0.0
 11
255.6282184934788
 21
75.72749331338127
 31
0.0
  0
LINE
  5
5E9
330
1F
100
AcDbEntity
  8
Sichtbare_Kanten_TC_020513_DIN_
  6
Continuous
 62
     7
100
AcDbLine
 10
225.3482184934788
 20
75.72749331338127
 30
0.0
 11
225.3482184934788
 21
91.11749331338117
 31
0.0
  0
LINE
  5
5EA
330
1F
100
AcDbEntity
  8
Sichtbare_Kanten_TC_020513_DIN_
  6
Continuous
 62
     7
100
AcDbLine
 10
218.4382184934849
 20
134.7274933133812
 30
0.0
 11
218.4382184934849
 21
130.7274933133812
 31
0.0
  0
LINE
  5
5EB
330
1F
100
AcDbEntity
  8
Sichtbare_Kanten_TC_020513_DIN_
  6
Continuous
 62
     7
100
AcDbLine
 10
224.2382184934828
 20
134.7274933133812
 30
0.0
 11
218.4382184934849
 21
134.7274933133812
 31
0.0
  0
LINE
  5
5EC
330
1F
100
AcDbEntity
  8
Sichtbare_Kanten_TC_020513_DIN_
  6
Continuous
 62
     7
100
AcDbLine
 10
224.2382184934828
 20
134.7274933133812
 30
0.0
 11
224.2434132720599
 21
134.7274933133812
 31
0.0
  0
LINE
  5
5ED
330
1F
100
AcDbEntity
  8
Sichtbare_Kanten_TC_020513_DIN_
  6
Continuous
 62
     7
100
AcDbLine
 10
256.7330237149058
 20
134.7274933133812
 30
0.0
 11
256.7382184934828
 21
134.7274933133812
 31
0.0
  0
LINE
  5
5EE
330
1F
100
AcDbEntity
  8
Sichtbare_Kanten_TC_020513_DIN_
  6
Continuous
 62
     7
100
AcDbLine
 10
262.5382184934848
 20
134.7274933133812
 30
0.0
 11
262.5382184934848
 21
130.7274933133812
 31
0.0
  0
LINE
  5
5EF
330
1F
100
AcDbEntity
  8
Sichtbare_Kanten_TC_020513_DIN_
  6
Continuous
 62
     7
100
AcDbLine
 10
262.5382184934848
 20
134.7274933133812
 30
0.0
 11
256.7382184934828
 21
134.7274933133812
 31
0.0
  0
LINE
  5
5F0
330
1F
100
AcDbEntity
  8
Sichtbare_Kanten_TC_020513_DIN_
  6
Continuous
 62
     7
100
AcDbLine
 10
262.8382184934889
 20
125.2274933133812
 30
0.0
 11
262.8382184934889
 21
130.2274933133812
 31
0.0
  0
LINE
  5
5F1
330
1F
100
AcDbEntity
  8
Sichtbare_Kanten_TC_020513_DIN_
  6
Continuous
 62
     7
100
AcDbLine
 10
267.5882184934889
 20
123.7274933133812
 30
0.0
 11
267.5882184934889
 21
131.7274933133812
 31
0.0
  0
LINE
  5
5F2
330
1F
100
AcDbEntity
  8
Sichtbare_Kanten_TC_020513_DIN_
  6
Continuous
 62
     7
100
AcDbLine
 10
268.9882184934899
 20
123.7274933133812
 30
0.0
 11
268.9882184934899
 21
131.7274933133812
 31
0.0
  0
LINE
  5
5F3
330
1F
100
AcDbEntity
  8
Sichtbare_Kanten_TC_020513_DIN_
  6
Continuous
 62
     7
100
AcDbLine
 10
218.1382184934888
 20
125.2274933133812
 30
0.0
 11
218.1382184934888
 21
130.2274933133812
 31
0.0
  0
LINE
  5
5F4
330
1F
100
AcDbEntity
  8
Sichtbare_Kanten_TC_020513_DIN_
  6
Continuous
 62
     7
100
AcDbLine
 10
213.3882184934888
 20
123.7274933133812
 30
0.0
 11
213.3882184934888
 21
131.7274933133812
 31
0.0
  0
LINE
  5
5F5
330
1F
100
AcDbEntity
  8
Sichtbare_Kanten_TC_020513_DIN_
  6
Continuous
 62
     7
100
AcDbLine
 10
211.9882184934888
 20
123.7274933133812
 30
0.0
 11
211.9882184934888
 21
131.7274933133812
 31
0.0
  0
LINE
  5
5F6
330
1F
100
AcDbEntity
  8
Sichtbare_Kanten_TC_020513_DIN_
  6
Continuous
 62
     7
100
AcDbLine
 10
262.7382184934899
 20
129.2274933133812
 30
0.0
 11
262.8382184934889
 21
129.2274933133812
 31
0.0
  0
LINE
  5
5F7
330
1F
100
AcDbEntity
  8
Sichtbare_Kanten_TC_020513_DIN_
  6
Continuous
 62
     7
100
AcDbLine
 10
262.7382184934899
 20
126.2274933133812
 30
0.0
 11
262.8382184934889
 21
126.2274933133812
 31
0.0
  0
LINE
  5
5F8
330
1F
100
AcDbEntity
  8
Sichtbare_Kanten_TC_020513_DIN_
  6
Continuous
 62
     7
100
AcDbLine
 10
266.9882184934899
 20
130.2274933133812
 30
0.0
 11
267.5882184934889
 21
130.2274933133812
 31
0.0
  0
LINE
  5
5F9
330
1F
100
AcDbEntity
  8
Sichtbare_Kanten_TC_020513_DIN_
  6
Continuous
 62
     7
100
AcDbLine
 10
266.9882184934899
 20
125.2274933133812
 30
0.0
 11
267.5882184934889
 21
125.2274933133812
 31
0.0
  0
LINE
  5
5FA
330
1F
100
AcDbEntity
  8
Sichtbare_Kanten_TC_020513_DIN_
  6
Continuous
 62
     7
100
AcDbLine
 10
262.8382184934889
 20
130.2274933133812
 30
0.0
 11
262.8882184934888
 21
130.2274933133812
 31
0.0
  0
LINE
  5
5FB
330
1F
100
AcDbEntity
  8
Sichtbare_Kanten_TC_020513_DIN_
  6
Continuous
 62
     7
100
AcDbLine
 10
264.2882184934889
 20
130.2274933133812
 30
0.0
 11
265.5882184934889
 21
130.2274933133812
 31
0.0
  0
LINE
  5
5FC
330
1F
100
AcDbEntity
  8
Sichtbare_Kanten_TC_020513_DIN_
  6
Continuous
 62
     7
100
AcDbLine
 10
262.8382184934889
 20
125.2274933133812
 30
0.0
 11
262.8882184934888
 21
125.2274933133812
 31
0.0
  0
LINE
  5
5FD
330
1F
100
AcDbEntity
  8
Sichtbare_Kanten_TC_020513_DIN_
  6
Continuous
 62
     7
100
AcDbLine
 10
264.2882184934889
 20
125.2274933133812
 30
0.0
 11
265.5882184934889
 21
125.2274933133812
 31
0.0
  0
LINE
  5
5FE
330
1F
100
AcDbEntity
  8
Sichtbare_Kanten_TC_020513_DIN_
  6
Continuous
 62
     7
100
AcDbLine
 10
218.1382184934888
 20
129.2274933133812
 30
0.0
 11
218.2382184934888
 21
129.2274933133812
 31
0.0
  0
LINE
  5
5FF
330
1F
100
AcDbEntity
  8
Sichtbare_Kanten_TC_020513_DIN_
  6
Continuous
 62
     7
100
AcDbLine
 10
218.1382184934888
 20
126.2274933133812
 30
0.0
 11
218.2382184934888
 21
126.2274933133812
 31
0.0
  0
LINE
  5
600
330
1F
100
AcDbEntity
  8
Sichtbare_Kanten_TC_020513_DIN_
  6
Continuous
 62
     7
100
AcDbLine
 10
213.3882184934888
 20
130.2274933133812
 30
0.0
 11
213.9882184934888
 21
130.2274933133812
 31
0.0
  0
LINE
  5
601
330
1F
100
AcDbEntity
  8
Sichtbare_Kanten_TC_020513_DIN_
  6
Continuous
 62
     7
100
AcDbLine
 10
213.3882184934888
 20
125.2274933133812
 30
0.0
 11
213.9882184934888
 21
125.2274933133812
 31
0.0
  0
LINE
  5
602
330
1F
100
AcDbEntity
  8
Sichtbare_Kanten_TC_020513_DIN_
  6
Continuous
 62
     7
100
AcDbLine
 10
215.3882184934888
 20
130.2274933133812
 30
0.0
 11
216.6882184934899
 21
130.2274933133812
 31
0.0
  0
LINE
  5
603
330
1F
100
AcDbEntity
  8
Sichtbare_Kanten_TC_020513_DIN_
  6
Continuous
 62
     7
100
AcDbLine
 10
218.0882184934899
 20
130.2274933133812
 30
0.0
 11
218.1382184934888
 21
130.2274933133812
 31
0.0
  0
LINE
  5
604
330
1F
100
AcDbEntity
  8
Sichtbare_Kanten_TC_020513_DIN_
  6
Continuous
 62
     7
100
AcDbLine
 10
215.3882184934888
 20
125.2274933133812
 30
0.0
 11
216.6882184934899
 21
125.2274933133812
 31
0.0
  0
LINE
  5
605
330
1F
100
AcDbEntity
  8
Sichtbare_Kanten_TC_020513_DIN_
  6
Continuous
 62
     7
100
AcDbLine
 10
218.0882184934899
 20
125.2274933133812
 30
0.0
 11
218.1382184934888
 21
125.2274933133812
 31
0.0
  0
LINE
  5
606
330
1F
100
AcDbEntity
  8
Sichtbare_Kanten_TC_020513_DIN_
  6
Continuous
 62
     7
100
AcDbLine
 10
226.7048557960728
 20
115.5108560107902
 30
0.0
 11
226.7048557960728
 21
115.4108560107902
 31
0.0
  0
LINE
  5
607
330
1F
100
AcDbEntity
  8
Sichtbare_Kanten_TC_020513_DIN_
  6
Continuous
 62
     7
100
AcDbLine
 10
230.7048557960728
 20
115.4108560107902
 30
0.0
 11
230.7048557960728
 21
115.5108560107902
 31
0.0
  0
LINE
  5
608
330
1F
100
AcDbEntity
  8
Sichtbare_Kanten_TC_020513_DIN_
  6
Continuous
 62
     7
100
AcDbLine
 10
250.2715811908909
 20
115.5108560107902
 30
0.0
 11
250.2715811908909
 21
115.4108560107902
 31
0.0
  0
LINE
  5
609
330
1F
100
AcDbEntity
  8
Sichtbare_Kanten_TC_020513_DIN_
  6
Continuous
 62
     7
100
AcDbLine
 10
254.2715811908919
 20
115.4108560107902
 30
0.0
 11
254.2715811908909
 21
115.5108560107902
 31
0.0
  0
LINE
  5
60A
330
1F
100
AcDbEntity
  8
Sichtbare_Kanten_TC_020513_DIN_
  6
Continuous
 62
     7
100
AcDbLine
 10
215.3882184934869
 20
115.8859848801942
 30
0.0
 11
215.3882184934898
 21
112.9935528887752
 31
0.0
  0
LINE
  5
60B
330
1F
100
AcDbEntity
  8
Sichtbare_Kanten_TC_020513_DIN_
  6
Continuous
 62
     7
100
AcDbLine
 10
215.3882184934888
 20
134.7274933133812
 30
0.0
 11
215.3882184934888
 21
134.0194690269602
 31
0.0
  0
LINE
  5
60C
330
1F
100
AcDbEntity
  8
Sichtbare_Kanten_TC_020513_DIN_
  6
Continuous
 62
     7
100
AcDbLine
 10
215.3882184934888
 20
134.0194690269602
 30
0.0
 11
215.3882184934869
 21
128.9059055632892
 31
0.0
  0
LINE
  5
60D
330
1F
100
AcDbEntity
  8
Sichtbare_Kanten_TC_020513_DIN_
  6
Continuous
 62
     7
100
AcDbLine
 10
215.3882184934869
 20
128.7274933133812
 30
0.0
 11
215.3882184934869
 21
128.9059055632892
 31
0.0
  0
LINE
  5
60E
330
1F
100
AcDbEntity
  8
Sichtbare_Kanten_TC_020513_DIN_
  6
Continuous
 62
     7
100
AcDbLine
 10
215.3882184934869
 20
128.7274933133812
 30
0.0
 11
215.3882184934798
 21
120.7274933133812
 31
0.0
  0
LINE
  5
60F
330
1F
100
AcDbEntity
  8
Sichtbare_Kanten_TC_020513_DIN_
  6
Continuous
 62
     7
100
AcDbLine
 10
215.3882184934798
 20
118.3108560107902
 30
0.0
 11
215.3882184934798
 21
120.7274933133812
 31
0.0
  0
LINE
  5
610
330
1F
100
AcDbEntity
  8
Sichtbare_Kanten_TC_020513_DIN_
  6
Continuous
 62
     7
100
AcDbLine
 10
213.9882184934799
 20
118.3108560107902
 30
0.0
 11
213.9882184934799
 21
120.7274933133812
 31
0.0
  0
LINE
  5
611
330
1F
100
AcDbEntity
  8
Sichtbare_Kanten_TC_020513_DIN_
  6
Continuous
 62
     7
100
AcDbLine
 10
213.9882184934828
 20
128.7274933133812
 30
0.0
 11
213.9882184934799
 21
120.7274933133812
 31
0.0
  0
LINE
  5
612
330
1F
100
AcDbEntity
  8
Sichtbare_Kanten_TC_020513_DIN_
  6
Continuous
 62
     7
100
AcDbLine
 10
213.9882184934828
 20
128.7274933133812
 30
0.0
 11
213.9882184934869
 21
128.9059055632892
 31
0.0
  0
LINE
  5
613
330
1F
100
AcDbEntity
  8
Sichtbare_Kanten_TC_020513_DIN_
  6
Continuous
 62
     7
100
AcDbLine
 10
213.9882184934888
 20
134.0194690269602
 30
0.0
 11
213.9882184934869
 21
128.9059055632892
 31
0.0
  0
LINE
  5
614
330
1F
100
AcDbEntity
  8
Sichtbare_Kanten_TC_020513_DIN_
  6
Continuous
 62
     7
100
AcDbLine
 10
213.9882184934888
 20
134.7274933133812
 30
0.0
 11
213.9882184934888
 21
134.0194690269602
 31
0.0
  0
LINE
  5
615
330
1F
100
AcDbEntity
  8
Sichtbare_Kanten_TC_020513_DIN_
  6
Continuous
 62
     7
100
AcDbLine
 10
213.9882184934799
 20
118.3108560107902
 30
0.0
 11
213.9882184934899
 21
112.9935528887752
 31
0.0
  0
LINE
  5
616
330
1F
100
AcDbEntity
  8
Sichtbare_Kanten_TC_020513_DIN_
  6
Continuous
 62
     7
100
AcDbLine
 10
213.9882184934828
 20
128.7274933133812
 30
0.0
 11
215.3882184934869
 21
128.7274933133812
 31
0.0
  0
LINE
  5
617
330
1F
100
AcDbEntity
  8
Sichtbare_Kanten_TC_020513_DIN_
  6
Continuous
 62
     7
100
AcDbLine
 10
220.7048557960709
 20
115.5108560107902
 30
0.0
 11
216.7882184934798
 21
115.5108560107902
 31
0.0
  0
LINE
  5
618
330
1F
100
AcDbEntity
  8
Sichtbare_Kanten_TC_020513_DIN_
  6
Continuous
 62
     7
100
AcDbLine
 10
220.7048557960709
 20
116.9108560107902
 30
0.0
 11
216.7882184934798
 21
116.9108560107902
 31
0.0
  0
LINE
  5
619
330
1F
100
AcDbEntity
  8
Sichtbare_Kanten_TC_020513_DIN_
  6
Continuous
 62
     7
100
AcDbLine
 10
221.4964006210029
 20
116.9108560107902
 30
0.0
 11
220.7048557960709
 21
116.9108560107902
 31
0.0
  0
LINE
  5
61A
330
1F
100
AcDbEntity
  8
Sichtbare_Kanten_TC_020513_DIN_
  6
Continuous
 62
     7
100
AcDbLine
 10
221.4964006210029
 20
115.5108560107902
 30
0.0
 11
220.7048557960709
 21
115.5108560107902
 31
0.0
  0
LINE
  5
61B
330
1F
100
AcDbEntity
  8
Sichtbare_Kanten_TC_020513_DIN_
  6
Continuous
 62
     7
100
AcDbLine
 10
221.4964006210029
 20
116.9108560107902
 30
0.0
 11
227.8287592204569
 21
116.9108560107902
 31
0.0
  0
LINE
  5
61C
330
1F
100
AcDbEntity
  8
Sichtbare_Kanten_TC_020513_DIN_
  6
Continuous
 62
     7
100
AcDbLine
 10
221.4964006210029
 20
115.5108560107902
 30
0.0
 11
227.8287592204569
 21
115.5108560107902
 31
0.0
  0
LINE
  5
61D
330
1F
100
AcDbEntity
  8
Sichtbare_Kanten_TC_020513_DIN_
  6
Continuous
 62
     7
100
AcDbLine
 10
226.7048557960728
 20
114.5732010957832
 30
0.0
 11
230.2048557960728
 21
114.5732010957832
 31
0.0
  0
LINE
  5
61E
330
1F
100
AcDbEntity
  8
Sichtbare_Kanten_TC_020513_DIN_
  6
Continuous
 62
     7
100
AcDbLine
 10
230.7048557960728
 20
115.0732010957832
 30
0.0
 11
230.7048557960728
 21
115.4108560107902
 31
0.0
  0
LINE
  5
61F
330
1F
100
AcDbEntity
  8
Sichtbare_Kanten_TC_020513_DIN_
  6
Continuous
 62
     7
100
AcDbLine
 10
226.7048557960728
 20
115.4108560107902
 30
0.0
 11
226.7048557960728
 21
114.5732010957832
 31
0.0
  0
LINE
  5
620
330
1F
100
AcDbEntity
  8
Sichtbare_Kanten_TC_020513_DIN_
  6
Continuous
 62
     7
100
AcDbLine
 10
260.2715811908888
 20
115.5108560107902
 30
0.0
 11
264.1882184934799
 21
115.5108560107902
 31
0.0
  0
LINE
  5
621
330
1F
100
AcDbEntity
  8
Sichtbare_Kanten_TC_020513_DIN_
  6
Continuous
 62
     7
100
AcDbLine
 10
259.4800363659568
 20
115.5108560107902
 30
0.0
 11
260.2715811908888
 21
115.5108560107902
 31
0.0
  0
LINE
  5
622
330
1F
100
AcDbEntity
  8
Sichtbare_Kanten_TC_020513_DIN_
  6
Continuous
 62
     7
100
AcDbLine
 10
259.4800363659568
 20
115.5108560107902
 30
0.0
 11
253.1476777665008
 21
115.5108560107902
 31
0.0
  0
LINE
  5
623
330
1F
100
AcDbEntity
  8
Sichtbare_Kanten_TC_020513_DIN_
  6
Continuous
 62
     7
100
AcDbLine
 10
253.1476777665008
 20
115.5108560107902
 30
0.0
 11
227.8287592204569
 21
115.5108560107902
 31
0.0
  0
LINE
  5
624
330
1F
100
AcDbEntity
  8
Sichtbare_Kanten_TC_020513_DIN_
  6
Continuous
 62
     7
100
AcDbLine
 10
254.2715811908919
 20
114.5732010957832
 30
0.0
 11
250.7715811908919
 21
114.5732010957832
 31
0.0
  0
LINE
  5
625
330
1F
100
AcDbEntity
  8
Sichtbare_Kanten_TC_020513_DIN_
  6
Continuous
 62
     7
100
AcDbLine
 10
250.2715811908919
 20
115.0732010957832
 30
0.0
 11
250.2715811908909
 21
115.4108560107902
 31
0.0
  0
LINE
  5
626
330
1F
100
AcDbEntity
  8
Sichtbare_Kanten_TC_020513_DIN_
  6
Continuous
 62
     7
100
AcDbLine
 10
254.2715811908919
 20
115.4108560107902
 30
0.0
 11
254.2715811908919
 21
114.5732010957832
 31
0.0
  0
LINE
  5
627
330
1F
100
AcDbEntity
  8
Sichtbare_Kanten_TC_020513_DIN_
  6
Continuous
 62
     7
100
AcDbLine
 10
253.1476777665008
 20
116.9108560107902
 30
0.0
 11
227.8287592204569
 21
116.9108560107902
 31
0.0
  0
LINE
  5
628
330
1F
100
AcDbEntity
  8
Sichtbare_Kanten_TC_020513_DIN_
  6
Continuous
 62
     7
100
AcDbLine
 10
259.4800363659568
 20
116.9108560107902
 30
0.0
 11
253.1476777665008
 21
116.9108560107902
 31
0.0
  0
LINE
  5
629
330
1F
100
AcDbEntity
  8
Sichtbare_Kanten_TC_020513_DIN_
  6
Continuous
 62
     7
100
AcDbLine
 10
259.4800363659568
 20
116.9108560107902
 30
0.0
 11
260.2715811908888
 21
116.9108560107902
 31
0.0
  0
LINE
  5
62A
330
1F
100
AcDbEntity
  8
Sichtbare_Kanten_TC_020513_DIN_
  6
Continuous
 62
     7
100
AcDbLine
 10
260.2715811908888
 20
116.9108560107902
 30
0.0
 11
264.1882184934799
 21
116.9108560107902
 31
0.0
  0
LINE
  5
62B
330
1F
100
AcDbEntity
  8
Sichtbare_Kanten_TC_020513_DIN_
  6
Continuous
 62
     7
100
AcDbLine
 10
265.5882184934799
 20
118.3108560107902
 30
0.0
 11
265.5882184934799
 21
120.7274933133812
 31
0.0
  0
LINE
  5
62C
330
1F
100
AcDbEntity
  8
Sichtbare_Kanten_TC_020513_DIN_
  6
Continuous
 62
     7
100
AcDbLine
 10
265.5882184934818
 20
128.7274933133812
 30
0.0
 11
265.5882184934799
 21
120.7274933133812
 31
0.0
  0
LINE
  5
62D
330
1F
100
AcDbEntity
  8
Sichtbare_Kanten_TC_020513_DIN_
  6
Continuous
 62
     7
100
AcDbLine
 10
265.5882184934818
 20
128.7274933133812
 30
0.0
 11
265.5882184934868
 21
128.9059055632892
 31
0.0
  0
LINE
  5
62E
330
1F
100
AcDbEntity
  8
Sichtbare_Kanten_TC_020513_DIN_
  6
Continuous
 62
     7
100
AcDbLine
 10
265.5882184934889
 20
134.0194690269602
 30
0.0
 11
265.5882184934868
 21
128.9059055632892
 31
0.0
  0
LINE
  5
62F
330
1F
100
AcDbEntity
  8
Sichtbare_Kanten_TC_020513_DIN_
  6
Continuous
 62
     7
100
AcDbLine
 10
265.5882184934889
 20
134.7274933133812
 30
0.0
 11
265.5882184934889
 21
134.0194690269602
 31
0.0
  0
LINE
  5
630
330
1F
100
AcDbEntity
  8
Sichtbare_Kanten_TC_020513_DIN_
  6
Continuous
 62
     7
100
AcDbLine
 10
265.5882184934868
 20
115.8859848801942
 30
0.0
 11
265.5882184934899
 21
112.9935528887752
 31
0.0
  0
LINE
  5
631
330
1F
100
AcDbEntity
  8
Sichtbare_Kanten_TC_020513_DIN_
  6
Continuous
 62
     7
100
AcDbLine
 10
266.9882184934869
 20
118.3108560107902
 30
0.0
 11
266.9882184934899
 21
112.9935528887752
 31
0.0
  0
LINE
  5
632
330
1F
100
AcDbEntity
  8
Sichtbare_Kanten_TC_020513_DIN_
  6
Continuous
 62
     7
100
AcDbLine
 10
266.9882184934899
 20
134.7274933133812
 30
0.0
 11
266.9882184934888
 21
134.0194690269602
 31
0.0
  0
LINE
  5
633
330
1F
100
AcDbEntity
  8
Sichtbare_Kanten_TC_020513_DIN_
  6
Continuous
 62
     7
100
AcDbLine
 10
266.9882184934888
 20
134.0194690269602
 30
0.0
 11
266.9882184934869
 21
128.9059055632892
 31
0.0
  0
LINE
  5
634
330
1F
100
AcDbEntity
  8
Sichtbare_Kanten_TC_020513_DIN_
  6
Continuous
 62
     7
100
AcDbLine
 10
266.9882184934869
 20
128.7274933133812
 30
0.0
 11
266.9882184934869
 21
128.9059055632892
 31
0.0
  0
LINE
  5
635
330
1F
100
AcDbEntity
  8
Sichtbare_Kanten_TC_020513_DIN_
  6
Continuous
 62
     7
100
AcDbLine
 10
266.9882184934869
 20
128.7274933133812
 30
0.0
 11
266.9882184934799
 21
120.7274933133812
 31
0.0
  0
LINE
  5
636
330
1F
100
AcDbEntity
  8
Sichtbare_Kanten_TC_020513_DIN_
  6
Continuous
 62
     7
100
AcDbLine
 10
266.9882184934869
 20
118.3108560107902
 30
0.0
 11
266.9882184934799
 21
120.7274933133812
 31
0.0
  0
LINE
  5
637
330
1F
100
AcDbEntity
  8
Sichtbare_Kanten_TC_020513_DIN_
  6
Continuous
 62
     7
100
AcDbLine
 10
266.9882184934869
 20
128.7274933133812
 30
0.0
 11
265.5882184934818
 21
128.7274933133812
 31
0.0
  0
LINE
  5
638
330
1F
100
AcDbEntity
  8
Sichtbare_Kanten_TC_020513_DIN_
  6
Continuous
 62
     7
100
AcDbLine
 10
262.8882184934898
 20
117.5898383983742
 30
0.0
 11
262.8882184934898
 21
117.7274933133812
 31
0.0
  0
LINE
  5
639
330
1F
100
AcDbEntity
  8
Sichtbare_Kanten_TC_020513_DIN_
  6
Continuous
 62
     7
100
AcDbLine
 10
262.8882184934869
 20
125.9430916286522
 30
0.0
 11
262.8882184934898
 21
117.7274933133812
 31
0.0
  0
LINE
  5
63A
330
1F
100
AcDbEntity
  8
Sichtbare_Kanten_TC_020513_DIN_
  6
Continuous
 62
     7
100
AcDbLine
 10
262.8882184934869
 20
125.9430916286522
 30
0.0
 11
262.8882184934869
 21
130.7710711847552
 31
0.0
  0
LINE
  5
63B
330
1F
100
AcDbEntity
  8
Sichtbare_Kanten_TC_020513_DIN_
  6
Continuous
 62
     7
100
AcDbLine
 10
262.8882184934869
 20
130.7710711847552
 30
0.0
 11
262.8882184934869
 21
131.1196430764742
 31
0.0
  0
LINE
  5
63C
330
1F
100
AcDbEntity
  8
Sichtbare_Kanten_TC_020513_DIN_
  6
Continuous
 62
     7
100
AcDbLine
 10
262.8882184934869
 20
131.1196430764742
 30
0.0
 11
262.8882184934848
 21
135.0884786483762
 31
0.0
  0
LINE
  5
63D
330
1F
100
AcDbEntity
  8
Sichtbare_Kanten_TC_020513_DIN_
  6
Continuous
 62
     7
100
AcDbLine
 10
262.8882184934819
 20
145.5237348975732
 30
0.0
 11
262.8882184934829
 21
147.5709545821712
 31
0.0
  0
LINE
  5
63E
330
1F
100
AcDbEntity
  8
Sichtbare_Kanten_TC_020513_DIN_
  6
Continuous
 62
     7
100
AcDbLine
 10
262.8882184934879
 20
152.7274933133812
 30
0.0
 11
262.8882184934829
 21
147.5709545821712
 31
0.0
  0
LINE
  5
63F
330
1F
100
AcDbEntity
  8
Sichtbare_Kanten_TC_020513_DIN_
  6
Continuous
 62
     7
100
AcDbLine
 10
264.2882184934829
 20
147.5709545821712
 30
0.0
 11
264.2882184934819
 21
145.5237348975732
 31
0.0
  0
LINE
  5
640
330
1F
100
AcDbEntity
  8
Sichtbare_Kanten_TC_020513_DIN_
  6
Continuous
 62
     7
100
AcDbLine
 10
264.2882184934829
 20
147.5709545821712
 30
0.0
 11
264.2882184934879
 21
152.7274933133812
 31
0.0
  0
LINE
  5
641
330
1F
100
AcDbEntity
  8
Sichtbare_Kanten_TC_020513_DIN_
  6
Continuous
 62
     7
100
AcDbLine
 10
264.2882184934848
 20
135.0884786483762
 30
0.0
 11
264.2882184934869
 21
131.1196430764742
 31
0.0
  0
LINE
  5
642
330
1F
100
AcDbEntity
  8
Sichtbare_Kanten_TC_020513_DIN_
  6
Continuous
 62
     7
100
AcDbLine
 10
264.2882184934869
 20
131.1196430764742
 30
0.0
 11
264.2882184934869
 21
130.7710711847552
 31
0.0
  0
LINE
  5
643
330
1F
100
AcDbEntity
  8
Sichtbare_Kanten_TC_020513_DIN_
  6
Continuous
 62
     7
100
AcDbLine
 10
264.2882184934869
 20
130.7710711847552
 30
0.0
 11
264.2882184934869
 21
125.9430916286522
 31
0.0
  0
LINE
  5
644
330
1F
100
AcDbEntity
  8
Sichtbare_Kanten_TC_020513_DIN_
  6
Continuous
 62
     7
100
AcDbLine
 10
264.2882184934889
 20
117.7274933133812
 30
0.0
 11
264.2882184934869
 21
125.9430916286522
 31
0.0
  0
LINE
  5
645
330
1F
100
AcDbEntity
  8
Sichtbare_Kanten_TC_020513_DIN_
  6
Continuous
 62
     7
100
AcDbLine
 10
264.2882184934889
 20
117.7274933133812
 30
0.0
 11
264.2882184934898
 21
117.5898383983742
 31
0.0
  0
LINE
  5
646
330
1F
100
AcDbEntity
  8
Sichtbare_Kanten_TC_020513_DIN_
  6
Continuous
 62
     7
100
AcDbLine
 10
264.2882184934889
 20
117.7274933133812
 30
0.0
 11
262.8882184934898
 21
117.7274933133812
 31
0.0
  0
LINE
  5
647
330
1F
100
AcDbEntity
  8
Sichtbare_Kanten_TC_020513_DIN_
  6
Continuous
 62
     7
100
AcDbLine
 10
264.2882184934879
 20
152.7274933133812
 30
0.0
 11
262.8882184934879
 21
152.7274933133812
 31
0.0
  0
LINE
  5
648
330
1F
100
AcDbEntity
  8
Sichtbare_Kanten_TC_020513_DIN_
  6
Continuous
 62
     7
100
AcDbLine
 10
259.9107666122259
 20
143.0884786483762
 30
0.0
 11
257.0215811908898
 21
143.0884786483762
 31
0.0
  0
LINE
  5
649
330
1F
100
AcDbEntity
  8
Sichtbare_Kanten_TC_020513_DIN_
  6
Continuous
 62
     7
100
AcDbLine
 10
256.4117012690599
 20
133.5283016198792
 30
0.0
 11
256.7800997343179
 21
134.9031834096521
 31
0.0
  0
LINE
  5
64A
330
1F
100
AcDbEntity
  8
Sichtbare_Kanten_TC_020513_DIN_
  6
Continuous
 62
     7
100
AcDbLine
 10
257.0215811908898
 20
135.0884786483762
 30
0.0
 11
261.4882184934809
 21
135.0884786483762
 31
0.0
  0
LINE
  5
64B
330
1F
100
AcDbEntity
  8
Sichtbare_Kanten_TC_020513_DIN_
  6
Continuous
 62
     7
100
AcDbLine
 10
261.4882184934809
 20
144.4126887681462
 30
0.0
 11
260.6768110553448
 21
143.4456910386901
 31
0.0
  0
LINE
  5
64C
330
1F
100
AcDbEntity
  8
Sichtbare_Kanten_TC_020513_DIN_
  6
Continuous
 62
     7
100
AcDbLine
 10
253.5882964612289
 20
146.3051159509672
 30
0.0
 11
251.6564448086508
 21
146.3051159509672
 31
0.0
  0
LINE
  5
64D
330
1F
100
AcDbEntity
  8
Sichtbare_Kanten_TC_020513_DIN_
  6
Continuous
 62
     7
100
AcDbLine
 10
251.6564448086508
 20
144.9051159509671
 30
0.0
 11
253.5882964612289
 21
144.9051159509671
 31
0.0
  0
LINE
  5
64E
330
1F
100
AcDbEntity
  8
Sichtbare_Kanten_TC_020513_DIN_
  6
Continuous
 62
     7
100
AcDbLine
 10
253.5882964612289
 20
146.3051159509672
 30
0.0
 11
254.9104315679629
 21
146.3051159509672
 31
0.0
  0
LINE
  5
64F
330
1F
100
AcDbEntity
  8
Sichtbare_Kanten_TC_020513_DIN_
  6
Continuous
 62
     7
100
AcDbLine
 10
254.9104315679629
 20
144.9051159509671
 30
0.0
 11
253.5882964612289
 21
144.9051159509671
 31
0.0
  0
LINE
  5
650
330
1F
100
AcDbEntity
  8
Sichtbare_Kanten_TC_020513_DIN_
  6
Continuous
 62
     7
100
AcDbLine
 10
264.3882184934898
 20
117.4898383983742
 30
0.0
 11
265.3222070649059
 21
117.4898383983742
 31
0.0
  0
LINE
  5
651
330
1F
100
AcDbEntity
  8
Sichtbare_Kanten_TC_020513_DIN_
  6
Continuous
 62
     7
100
AcDbLine
 10
266.9882184934899
 20
116.0898383983742
 30
0.0
 11
267.3258734084978
 21
116.0898383983742
 31
0.0
  0
LINE
  5
652
330
1F
100
AcDbEntity
  8
Sichtbare_Kanten_TC_020513_DIN_
  6
Continuous
 62
     7
100
AcDbLine
 10
267.3258734084978
 20
117.4898383983742
 30
0.0
 11
267.3258734084978
 21
116.0898383983742
 31
0.0
  0
LINE
  5
653
330
1F
100
AcDbEntity
  8
Sichtbare_Kanten_TC_020513_DIN_
  6
Continuous
 62
     7
100
AcDbLine
 10
267.3258734084978
 20
117.4898383983742
 30
0.0
 11
266.9882184934899
 21
117.4898383983742
 31
0.0
  0
LINE
  5
654
330
1F
100
AcDbEntity
  8
Sichtbare_Kanten_TC_020513_DIN_
  6
Continuous
 62
     7
100
AcDbLine
 10
254.5474551962038
 20
127.4282648831932
 30
0.0
 11
256.1760008490059
 21
132.9366360534422
 31
0.0
  0
LINE
  5
655
330
1F
100
AcDbEntity
  8
Sichtbare_Kanten_TC_020513_DIN_
  6
Continuous
 62
     7
100
AcDbLine
 10
256.1760008490069
 20
132.3449704870052
 30
0.0
 11
254.5474551962038
 21
126.8365993167562
 31
0.0
  0
LINE
  5
656
330
1F
100
AcDbEntity
  8
Sichtbare_Kanten_TC_020513_DIN_
  6
Continuous
 62
     7
100
AcDbLine
 10
251.6564448086508
 20
146.3051159509672
 30
0.0
 11
229.3199921783069
 21
146.3051159509672
 31
0.0
  0
LINE
  5
657
330
1F
100
AcDbEntity
  8
Sichtbare_Kanten_TC_020513_DIN_
  6
Continuous
 62
     7
100
AcDbLine
 10
229.3199921783069
 20
144.9051159509671
 30
0.0
 11
251.6564448086508
 21
144.9051159509671
 31
0.0
  0
LINE
  5
658
330
1F
100
AcDbEntity
  8
Sichtbare_Kanten_TC_020513_DIN_
  6
Continuous
 62
     7
100
AcDbLine
 10
227.3881405257289
 20
146.3051159509672
 30
0.0
 11
226.0660054189979
 21
146.3051159509672
 31
0.0
  0
LINE
  5
659
330
1F
100
AcDbEntity
  8
Sichtbare_Kanten_TC_020513_DIN_
  6
Continuous
 62
     7
100
AcDbLine
 10
227.3881405257289
 20
146.3051159509672
 30
0.0
 11
229.3199921783069
 21
146.3051159509672
 31
0.0
  0
LINE
  5
65A
330
1F
100
AcDbEntity
  8
Sichtbare_Kanten_TC_020513_DIN_
  6
Continuous
 62
     7
100
AcDbLine
 10
252.6156035436259
 20
125.4931231747022
 30
0.0
 11
228.3608334433349
 21
125.4931231747022
 31
0.0
  0
LINE
  5
65B
330
1F
100
AcDbEntity
  8
Sichtbare_Kanten_TC_020513_DIN_
  6
Continuous
 62
     7
100
AcDbLine
 10
224.8004361379559
 20
132.3449704870052
 30
0.0
 11
226.4289817907569
 21
126.8365993167562
 31
0.0
  0
LINE
  5
65C
330
1F
100
AcDbEntity
  8
Sichtbare_Kanten_TC_020513_DIN_
  6
Continuous
 62
     7
100
AcDbLine
 10
224.5647357179018
 20
133.5283016198792
 30
0.0
 11
224.1963372526438
 21
134.9031834096521
 31
0.0
  0
LINE
  5
65D
330
1F
100
AcDbEntity
  8
Sichtbare_Kanten_TC_020513_DIN_
  6
Continuous
 62
     7
100
AcDbLine
 10
221.0656703747369
 20
143.0884786483762
 30
0.0
 11
223.9548557960719
 21
143.0884786483762
 31
0.0
  0
LINE
  5
65E
330
1F
100
AcDbEntity
  8
Sichtbare_Kanten_TC_020513_DIN_
  6
Continuous
 62
     7
100
AcDbLine
 10
219.4882184934809
 20
144.4126887681462
 30
0.0
 11
220.2996259316178
 21
143.4456910386901
 31
0.0
  0
LINE
  5
65F
330
1F
100
AcDbEntity
  8
Sichtbare_Kanten_TC_020513_DIN_
  6
Continuous
 62
     7
100
AcDbLine
 10
223.9548557960719
 20
135.0884786483762
 30
0.0
 11
219.4882184934809
 21
135.0884786483762
 31
0.0
  0
LINE
  5
660
330
1F
100
AcDbEntity
  8
Sichtbare_Kanten_TC_020513_DIN_
  6
Continuous
 62
     7
100
AcDbLine
 10
218.0882184934878
 20
152.7274933133812
 30
0.0
 11
218.0882184934828
 21
147.5709545821712
 31
0.0
  0
LINE
  5
661
330
1F
100
AcDbEntity
  8
Sichtbare_Kanten_TC_020513_DIN_
  6
Continuous
 62
     7
100
AcDbLine
 10
218.0882184934818
 20
145.5237348975732
 30
0.0
 11
218.0882184934828
 21
147.5709545821712
 31
0.0
  0
LINE
  5
662
330
1F
100
AcDbEntity
  8
Sichtbare_Kanten_TC_020513_DIN_
  6
Continuous
 62
     7
100
AcDbLine
 10
218.0882184934868
 20
131.1196430764742
 30
0.0
 11
218.0882184934849
 21
135.0884786483762
 31
0.0
  0
LINE
  5
663
330
1F
100
AcDbEntity
  8
Sichtbare_Kanten_TC_020513_DIN_
  6
Continuous
 62
     7
100
AcDbLine
 10
218.0882184934868
 20
130.7710711847552
 30
0.0
 11
218.0882184934868
 21
131.1196430764742
 31
0.0
  0
LINE
  5
664
330
1F
100
AcDbEntity
  8
Sichtbare_Kanten_TC_020513_DIN_
  6
Continuous
 62
     7
100
AcDbLine
 10
218.0882184934868
 20
125.9430916286522
 30
0.0
 11
218.0882184934868
 21
130.7710711847552
 31
0.0
  0
LINE
  5
665
330
1F
100
AcDbEntity
  8
Sichtbare_Kanten_TC_020513_DIN_
  6
Continuous
 62
     7
100
AcDbLine
 10
218.0882184934868
 20
125.9430916286522
 30
0.0
 11
218.0882184934899
 21
117.7274933133812
 31
0.0
  0
LINE
  5
666
330
1F
100
AcDbEntity
  8
Sichtbare_Kanten_TC_020513_DIN_
  6
Continuous
 62
     7
100
AcDbLine
 10
218.0882184934899
 20
117.5898383983742
 30
0.0
 11
218.0882184934899
 21
117.7274933133812
 31
0.0
  0
LINE
  5
667
330
1F
100
AcDbEntity
  8
Sichtbare_Kanten_TC_020513_DIN_
  6
Continuous
 62
     7
100
AcDbLine
 10
216.6882184934899
 20
117.7274933133812
 30
0.0
 11
216.6882184934899
 21
117.5898383983742
 31
0.0
  0
LINE
  5
668
330
1F
100
AcDbEntity
  8
Sichtbare_Kanten_TC_020513_DIN_
  6
Continuous
 62
     7
100
AcDbLine
 10
216.6882184934899
 20
117.7274933133812
 30
0.0
 11
216.6882184934868
 21
125.9430916286522
 31
0.0
  0
LINE
  5
669
330
1F
100
AcDbEntity
  8
Sichtbare_Kanten_TC_020513_DIN_
  6
Continuous
 62
     7
100
AcDbLine
 10
216.6882184934868
 20
130.7710711847552
 30
0.0
 11
216.6882184934868
 21
125.9430916286522
 31
0.0
  0
LINE
  5
66A
330
1F
100
AcDbEntity
  8
Sichtbare_Kanten_TC_020513_DIN_
  6
Continuous
 62
     7
100
AcDbLine
 10
216.6882184934868
 20
131.1196430764742
 30
0.0
 11
216.6882184934868
 21
130.7710711847552
 31
0.0
  0
LINE
  5
66B
330
1F
100
AcDbEntity
  8
Sichtbare_Kanten_TC_020513_DIN_
  6
Continuous
 62
     7
100
AcDbLine
 10
216.6882184934849
 20
135.0884786483762
 30
0.0
 11
216.6882184934868
 21
131.1196430764742
 31
0.0
  0
LINE
  5
66C
330
1F
100
AcDbEntity
  8
Sichtbare_Kanten_TC_020513_DIN_
  6
Continuous
 62
     7
100
AcDbLine
 10
216.6882184934829
 20
147.5709545821712
 30
0.0
 11
216.6882184934818
 21
145.5237348975732
 31
0.0
  0
LINE
  5
66D
330
1F
100
AcDbEntity
  8
Sichtbare_Kanten_TC_020513_DIN_
  6
Continuous
 62
     7
100
AcDbLine
 10
216.6882184934829
 20
147.5709545821712
 30
0.0
 11
216.6882184934879
 21
152.7274933133812
 31
0.0
  0
LINE
  5
66E
330
1F
100
AcDbEntity
  8
Sichtbare_Kanten_TC_020513_DIN_
  6
Continuous
 62
     7
100
AcDbLine
 10
229.3199921783069
 20
144.9051159509671
 30
0.0
 11
227.3881405257289
 21
144.9051159509671
 31
0.0
  0
LINE
  5
66F
330
1F
100
AcDbEntity
  8
Sichtbare_Kanten_TC_020513_DIN_
  6
Continuous
 62
     7
100
AcDbLine
 10
226.0660054189979
 20
144.9051159509671
 30
0.0
 11
227.3881405257289
 21
144.9051159509671
 31
0.0
  0
LINE
  5
670
330
1F
100
AcDbEntity
  8
Sichtbare_Kanten_TC_020513_DIN_
  6
Continuous
 62
     7
100
AcDbLine
 10
216.6882184934899
 20
117.7274933133812
 30
0.0
 11
218.0882184934899
 21
117.7274933133812
 31
0.0
  0
LINE
  5
671
330
1F
100
AcDbEntity
  8
Sichtbare_Kanten_TC_020513_DIN_
  6
Continuous
 62
     7
100
AcDbLine
 10
216.6882184934879
 20
152.7274933133812
 30
0.0
 11
218.0882184934878
 21
152.7274933133812
 31
0.0
  0
LINE
  5
672
330
1F
100
AcDbEntity
  8
Sichtbare_Kanten_TC_020513_DIN_
  6
Continuous
 62
     7
100
AcDbLine
 10
213.9882184934899
 20
116.0898383983742
 30
0.0
 11
213.6505635784829
 21
116.0898383983742
 31
0.0
  0
LINE
  5
673
330
1F
100
AcDbEntity
  8
Sichtbare_Kanten_TC_020513_DIN_
  6
Continuous
 62
     7
100
AcDbLine
 10
213.6505635784829
 20
117.4898383983742
 30
0.0
 11
213.9882184934899
 21
117.4898383983742
 31
0.0
  0
LINE
  5
674
330
1F
100
AcDbEntity
  8
Sichtbare_Kanten_TC_020513_DIN_
  6
Continuous
 62
     7
100
AcDbLine
 10
213.6505635784829
 20
117.4898383983742
 30
0.0
 11
213.6505635784829
 21
116.0898383983742
 31
0.0
  0
LINE
  5
675
330
1F
100
AcDbEntity
  8
Sichtbare_Kanten_TC_020513_DIN_
  6
Continuous
 62
     7
100
AcDbLine
 10
216.5882184934899
 20
117.4898383983742
 30
0.0
 11
215.6542299220739
 21
117.4898383983742
 31
0.0
  0
LINE
  5
676
330
1F
100
AcDbEntity
  8
Sichtbare_Kanten_TC_020513_DIN_
  6
Continuous
 62
     7
100
AcDbLine
 10
226.4289817907569
 20
127.4282648831932
 30
0.0
 11
224.8004361379559
 21
132.9366360534422
 31
0.0
  0
LINE
  5
677
330
1F
100
AcDbEntity
  8
Sichtbare_Kanten_TC_020513_DIN_
  6
Continuous
 62
     7
100
AcDbLine
 10
228.3608334433338
 20
126.0847887411392
 30
0.0
 11
252.6156035436248
 21
126.0847887411392
 31
0.0
  0
LINE
  5
678
330
1F
100
AcDbEntity
  8
Sichtbare_Kanten_TC_020513_DIN_
  6
Continuous
 62
     7
100
AcDbLine
 10
213.9882184934899
 20
112.9935528887752
 30
0.0
 11
215.3882184934898
 21
112.9935528887752
 31
0.0
  0
LINE
  5
679
330
1F
100
AcDbEntity
  8
Sichtbare_Kanten_TC_020513_DIN_
  6
Continuous
 62
     7
100
AcDbLine
 10
213.9882184934888
 20
134.7274933133812
 30
0.0
 11
215.3882184934888
 21
134.7274933133812
 31
0.0
  0
LINE
  5
67A
330
1F
100
AcDbEntity
  8
Sichtbare_Kanten_TC_020513_DIN_
  6
Continuous
 62
     7
100
AcDbLine
 10
265.5882184934899
 20
112.9935528887752
 30
0.0
 11
266.9882184934899
 21
112.9935528887752
 31
0.0
  0
LINE
  5
67B
330
1F
100
AcDbEntity
  8
Sichtbare_Kanten_TC_020513_DIN_
  6
Continuous
 62
     7
100
AcDbLine
 10
265.5882184934889
 20
134.7274933133812
 30
0.0
 11
266.9882184934899
 21
134.7274933133812
 31
0.0
  0
LINE
  5
67C
330
1F
100
AcDbEntity
  8
Sichtbare_Kanten_TC_020513_DIN_
  6
Continuous
 62
     7
100
AcDbLine
 10
256.1760008490069
 20
132.6763015758882
 30
0.0
 11
256.1760008490059
 21
132.9366360534422
 31
0.0
  0
LINE
  5
67D
330
1F
100
AcDbEntity
  8
Sichtbare_Kanten_TC_020513_DIN_
  6
Continuous
 62
     7
100
AcDbLine
 10
256.1760008490069
 20
132.3449704870052
 30
0.0
 11
256.1760008490069
 21
132.6763015758882
 31
0.0
  0
LINE
  5
67E
330
1F
100
AcDbEntity
  8
Sichtbare_Kanten_TC_020513_DIN_
  6
Continuous
 62
     7
100
AcDbLine
 10
262.1748177480898
 20
145.0884785924642
 30
0.0
 11
262.8614155721858
 21
145.0884785924642
 31
0.0
  0
LINE
  5
67F
330
1F
100
AcDbEntity
  8
Sichtbare_Kanten_TC_020513_DIN_
  6
Continuous
 62
     7
100
AcDbLine
 10
263.5042204062598
 20
145.5237348975732
 30
0.0
 11
264.2882184934819
 21
145.5237348975732
 31
0.0
  0
LINE
  5
680
330
1F
100
AcDbEntity
  8
Sichtbare_Kanten_TC_020513_DIN_
  6
Continuous
 62
     7
100
AcDbLine
 10
262.8882184934819
 20
145.5237348975732
 30
0.0
 11
263.5042204062598
 21
145.5237348975732
 31
0.0
  0
LINE
  5
681
330
1F
100
AcDbEntity
  8
Sichtbare_Kanten_TC_020513_DIN_
  6
Continuous
 62
     7
100
AcDbLine
 10
262.8614166504009
 20
145.0884786483762
 30
0.0
 11
263.8572790218249
 21
145.0884786483762
 31
0.0
  0
LINE
  5
682
330
1F
100
AcDbEntity
  8
Sichtbare_Kanten_TC_020513_DIN_
  6
Continuous
 62
     7
100
AcDbLine
 10
264.2882184934848
 20
135.0884786483762
 30
0.0
 11
261.4882184934809
 21
135.0884786483762
 31
0.0
  0
LINE
  5
683
330
1F
100
AcDbEntity
  8
Sichtbare_Kanten_TC_020513_DIN_
  6
Continuous
 62
     7
100
AcDbLine
 10
264.2882184934819
 20
145.5237348975732
 30
0.0
 11
264.2882184934848
 21
135.0884786483762
 31
0.0
  0
LINE
  5
684
330
1F
100
AcDbEntity
  8
Sichtbare_Kanten_TC_020513_DIN_
  6
Continuous
 62
     7
100
AcDbLine
 10
254.9104315679629
 20
145.5211170812491
 30
0.0
 11
254.9104315679629
 21
146.3051159509672
 31
0.0
  0
LINE
  5
685
330
1F
100
AcDbEntity
  8
Sichtbare_Kanten_TC_020513_DIN_
  6
Continuous
 62
     7
100
AcDbLine
 10
254.9104315679629
 20
144.9051159509671
 30
0.0
 11
254.9104315679629
 21
145.5211170812491
 31
0.0
  0
LINE
  5
686
330
1F
100
AcDbEntity
  8
Sichtbare_Kanten_TC_020513_DIN_
  6
Continuous
 62
     7
100
AcDbLine
 10
226.0660054189979
 20
145.5211170812482
 30
0.0
 11
226.0660054189979
 21
144.9051159509671
 31
0.0
  0
LINE
  5
687
330
1F
100
AcDbEntity
  8
Sichtbare_Kanten_TC_020513_DIN_
  6
Continuous
 62
     7
100
AcDbLine
 10
226.0660054189979
 20
146.3051159509672
 30
0.0
 11
226.0660054189979
 21
145.5211170812482
 31
0.0
  0
LINE
  5
688
330
1F
100
AcDbEntity
  8
Sichtbare_Kanten_TC_020513_DIN_
  6
Continuous
 62
     7
100
AcDbLine
 10
224.8004361379559
 20
132.6763015758872
 30
0.0
 11
224.8004361379559
 21
132.3449704870052
 31
0.0
  0
LINE
  5
689
330
1F
100
AcDbEntity
  8
Sichtbare_Kanten_TC_020513_DIN_
  6
Continuous
 62
     7
100
AcDbLine
 10
224.8004361379559
 20
132.9366360534422
 30
0.0
 11
224.8004361379559
 21
132.6763015758872
 31
0.0
  0
LINE
  5
68A
330
1F
100
AcDbEntity
  8
Sichtbare_Kanten_TC_020513_DIN_
  6
Continuous
 62
     7
100
AcDbLine
 10
216.6882184934849
 20
135.0884786483762
 30
0.0
 11
216.6882184934818
 21
145.5237348975732
 31
0.0
  0
LINE
  5
68B
330
1F
100
AcDbEntity
  8
Sichtbare_Kanten_TC_020513_DIN_
  6
Continuous
 62
     7
100
AcDbLine
 10
217.4722165807038
 20
145.5237348975732
 30
0.0
 11
218.0882184934818
 21
145.5237348975732
 31
0.0
  0
LINE
  5
68C
330
1F
100
AcDbEntity
  8
Sichtbare_Kanten_TC_020513_DIN_
  6
Continuous
 62
     7
100
AcDbLine
 10
216.6882184934818
 20
145.5237348975732
 30
0.0
 11
217.4722165807038
 21
145.5237348975732
 31
0.0
  0
LINE
  5
68D
330
1F
100
AcDbEntity
  8
Sichtbare_Kanten_TC_020513_DIN_
  6
Continuous
 62
     7
100
AcDbLine
 10
218.8016192388728
 20
145.0884785924642
 30
0.0
 11
218.1150214147758
 21
145.0884785924642
 31
0.0
  0
LINE
  5
68E
330
1F
100
AcDbEntity
  8
Sichtbare_Kanten_TC_020513_DIN_
  6
Continuous
 62
     7
100
AcDbLine
 10
217.1191579651379
 20
145.0884786483762
 30
0.0
 11
218.1150203365619
 21
145.0884786483762
 31
0.0
  0
LINE
  5
68F
330
1F
100
AcDbEntity
  8
Sichtbare_Kanten_TC_020513_DIN_
  6
Continuous
 62
     7
100
AcDbLine
 10
219.4882184934809
 20
135.0884786483762
 30
0.0
 11
216.6882184934849
 21
135.0884786483762
 31
0.0
  0
LINE
  5
690
330
1F
100
AcDbEntity
  8
Mittelpunktmarkierung_TC_020513_DIN_
  6
CHAIN
 62
     7
100
AcDbLine
 10
122.9048091533369
 20
127.7274933133812
 30
0.0
 11
108.5048091533369
 21
127.7274933133812
 31
0.0
  0
LINE
  5
691
330
1F
100
AcDbEntity
  8
Mittelpunktmarkierung_TC_020513_DIN_
  6
CHAIN
 62
     7
100
AcDbLine
 10
115.7048091533368
 20
134.9274933133812
 30
0.0
 11
115.7048091533368
 21
120.5274933133811
 31
0.0
  0
LINE
  5
692
330
1F
100
AcDbEntity
  8
Mittelpunktmarkierung_TC_020513_DIN_
  6
CHAIN
 62
     7
100
AcDbLine
 10
74.90480915333688
 20
127.7274933133812
 30
0.0
 11
60.50480915333588
 21
127.7274933133812
 31
0.0
  0
LINE
  5
693
330
1F
100
AcDbEntity
  8
Mittelpunktmarkierung_TC_020513_DIN_
  6
CHAIN
 62
     7
100
AcDbLine
 10
67.70480915333684
 20
134.9274933133812
 30
0.0
 11
67.70480915333684
 21
120.5274933133811
 31
0.0
  0
LINE
  5
694
330
1F
100
AcDbEntity
  8
Mittelpunktmarkierung_TC_020513_DIN_
  6
CHAIN
 62
     7
100
AcDbLine
 10
74.95480915333684
 20
116.7274933133812
 30
0.0
 11
66.45480915333684
 21
116.7274933133812
 31
0.0
  0
LINE
  5
695
330
1F
100
AcDbEntity
  8
Mittelpunktmarkierung_TC_020513_DIN_
  6
CHAIN
 62
     7
100
AcDbLine
 10
70.70480915333684
 20
120.9774933133812
 30
0.0
 11
70.70480915333684
 21
112.4774933133812
 31
0.0
  0
LINE
  5
696
330
1F
100
AcDbEntity
  8
Mittelpunktmarkierung_TC_020513_DIN_
  6
CHAIN
 62
     7
100
AcDbLine
 10
116.9548091533368
 20
116.7274933133812
 30
0.0
 11
108.4548091533368
 21
116.7274933133812
 31
0.0
  0
LINE
  5
697
330
1F
100
AcDbEntity
  8
Mittelpunktmarkierung_TC_020513_DIN_
  6
CHAIN
 62
     7
100
AcDbLine
 10
112.7048091533368
 20
120.9774933133812
 30
0.0
 11
112.7048091533368
 21
112.4774933133812
 31
0.0
  0
LINE
  5
698
330
1F
100
AcDbEntity
  8
Mittelpunktmarkierung_TC_020513_DIN_
  6
CHAIN
 62
     7
100
AcDbLine
 10
257.5402184935099
 20
91.11749331338117
 30
0.0
 11
223.4362184935098
 21
91.11749331338117
 31
0.0
  0
LINE
  5
699
330
1F
100
AcDbEntity
  8
Mittelpunktmarkierung_TC_020513_DIN_
  6
CHAIN
 62
     7
100
AcDbLine
 10
240.4882184935099
 20
108.1694933133812
 30
0.0
 11
240.4882184935099
 21
74.06549331338127
 31
0.0
  0
LINE
  5
69A
330
1F
100
AcDbEntity
  8
Mittellinie_TC_020513_DIN_
  6
CHAIN
 62
     7
100
AcDbLine
 10
262.9882184934809
 20
69.22749331338127
 30
0.0
 11
262.9882184934809
 21
78.22749331338127
 31
0.0
  0
LINE
  5
69B
330
1F
100
AcDbEntity
  8
Mittellinie_TC_020513_DIN_
  6
CHAIN
 62
     7
100
AcDbLine
 10
217.9882184934809
 20
69.22749331338127
 30
0.0
 11
217.9882184934809
 21
78.22749331338127
 31
0.0
  0
LINE
  5
69C
330
1F
100
AcDbEntity
  8
Mittellinie_TC_020513_DIN_
  6
CHAIN
 62
     7
100
AcDbLine
 10
212.8882184934888
 20
127.7274933133812
 30
0.0
 11
220.6382184934888
 21
127.7274933133812
 31
0.0
  0
LINE
  5
69D
330
1F
100
AcDbEntity
  8
Mittellinie_TC_020513_DIN_
  6
CHAIN
 62
     7
100
AcDbLine
 10
210.8882184934888
 20
127.7274933133812
 30
0.0
 11
216.4882184934888
 21
127.7274933133812
 31
0.0
  0
LINE
  5
69E
330
1F
100
AcDbEntity
  8
Mittellinie_TC_020513_DIN_
  6
CHAIN
 62
     7
100
AcDbLine
 10
264.4882184934899
 20
127.7274933133812
 30
0.0
 11
270.0882184934889
 21
127.7274933133812
 31
0.0
  0
LINE
  5
69F
330
1F
100
AcDbEntity
  8
Mittellinie_TC_020513_DIN_
  6
CHAIN
 62
     7
100
AcDbLine
 10
260.3382184934889
 20
127.7274933133812
 30
0.0
 11
268.0882184934889
 21
127.7274933133812
 31
0.0
  0
LINE
  5
6A0
330
1F
100
AcDbEntity
  8
Mittellinie_TC_020513_DIN_
  6
CHAIN
 62
     7
100
AcDbLine
 10
152.7048091533368
 20
91.11749331338117
 30
0.0
 11
134.7048091533359
 21
91.11749331338117
 31
0.0
  0
LINE
  5
6A1
330
1F
100
AcDbEntity
  8
Mittellinie_TC_020513_DIN_
  6
CHAIN
 62
     7
100
AcDbLine
 10
144.2048091533368
 20
69.22749331338127
 30
0.0
 11
144.2048091533368
 21
78.22749331338139
 31
0.0
  0
LINE
  5
6A2
330
1F
100
AcDbEntity
  8
Mittellinie_TC_020513_DIN_
  6
CHAIN
 62
     7
100
AcDbLine
 10
30.70480915333684
 20
91.11749331338117
 30
0.0
 11
48.70480915333684
 21
91.11749331338117
 31
0.0
  0
LINE
  5
6A3
330
1F
100
AcDbEntity
  8
Mittellinie_TC_020513_DIN_
  6
CHAIN
 62
     7
100
AcDbLine
 10
39.20480915333684
 20
69.22749331338127
 30
0.0
 11
39.20480915333684
 21
78.22749331338139
 31
0.0
  0
LINE
  5
6A4
330
1F
100
AcDbEntity
  8
Mittellinie_TC_020513_DIN_
  6
CHAIN
 62
     7
100
AcDbLine
 10
91.70480915333684
 20
68.61599619290877
 30
0.0
 11
91.70480915333684
 21
138.0055164165622
 31
0.0
  0
LINE
  5
6A5
330
1F
100
AcDbEntity
  8
1
  6
Continuous
 62
     2
100
AcDbLine
 10
150.2048091533368
 20
76.56549331338127
 30
0.0
 11
150.3048091533368
 21
76.56549331338127
 31
0.0
  0
LINE
  5
6A6
330
1F
100
AcDbEntity
  8
Sichtbare_Kanten_TC_020513_DIN_
  6
Continuous
 62
     7
100
AcDbLine
 10
150.2048091533368
 20
76.56549331338127
 30
0.0
 11
150.2048091533368
 21
75.72749331338127
 31
0.0
  0
LINE
  5
6A7
330
1F
100
AcDbEntity
  8
1
  6
Continuous
 62
     2
100
AcDbLine
 10
150.2048091533368
 20
105.6694933133812
 30
0.0
 11
150.3048091533368
 21
105.6694933133812
 31
0.0
  0
LINE
  5
6A8
330
1F
100
AcDbEntity
  8
Sichtbare_Kanten_TC_020513_DIN_
  6
Continuous
 62
     7
100
AcDbLine
 10
150.2048091533368
 20
105.6694933133812
 30
0.0
 11
150.2048091533368
 21
106.2574933133812
 31
0.0
  0
ARC
  5
6A9
330
1F
100
AcDbEntity
  8
Sichtbare_Kanten_TC_020513_DIN_
  6
Continuous
 62
     7
100
AcDbCircle
 10
93.70480915333684
 20
98.17115992451718
 30
0.0
 40
0.25
100
AcDbArc
 50
180.0
 51
299.9706156499731
  0
ARC
  5
6AA
330
1F
100
AcDbEntity
  8
Sichtbare_Kanten_TC_020513_DIN_
  6
Continuous
 62
     7
100
AcDbCircle
 10
94.70480915333684
 20
98.74782659118418
 30
0.0
 40
0.2500000000000228
100
AcDbArc
 50
299.9706156498592
 51
119.970615650051
  0
ARC
  5
6AB
330
1F
100
AcDbEntity
  8
Sichtbare_Kanten_TC_020513_DIN_
  6
Continuous
 62
     7
100
AcDbCircle
 10
94.70480915333684
 20
99.72749331338218
 30
0.0
 40
0.25
100
AcDbArc
 50
270.0
 51
90.0
  0
ARC
  5
6AC
330
1F
100
AcDbEntity
  8
Sichtbare_Kanten_TC_020513_DIN_
  6
Continuous
 62
     7
100
AcDbCircle
 10
94.70480915333684
 20
100.7071600355792
 30
0.0
 40
0.2499999999996315
100
AcDbArc
 50
240.0293843498335
 51
60.02938435014084
  0
ARC
  5
6AD
330
1F
100
AcDbEntity
  8
Sichtbare_Kanten_TC_020513_DIN_
  6
Continuous
 62
     7
100
AcDbCircle
 10
93.70480915333684
 20
101.2838267022462
 30
0.0
 40
0.2500000000000105
100
AcDbArc
 50
60.02938435013921
 51
180.0
  0
ARC
  5
6AE
330
1F
100
AcDbEntity
  8
Sichtbare_Kanten_TC_020513_DIN_
  6
Continuous
 62
     7
100
AcDbCircle
 10
88.70480915333684
 20
98.73749331338118
 30
0.0
 40
0.25
100
AcDbArc
 50
180.0
 51
0.0
  0
ARC
  5
6AF
330
1F
100
AcDbEntity
  8
Sichtbare_Kanten_TC_020513_DIN_
  6
Continuous
 62
     7
100
AcDbCircle
 10
88.70480915333684
 20
100.7174933133812
 30
0.0
 40
0.25
100
AcDbArc
 50
0.0
 51
180.0
  0
ARC
  5
6B0
330
1F
100
AcDbEntity
  8
Sichtbare_Kanten_TC_020513_DIN_
  6
Continuous
 62
     7
100
AcDbCircle
 10
89.70480915333684
 20
98.17115992451718
 30
0.0
 40
0.25
100
AcDbArc
 50
180.0
 51
240.0293843498351
  0
ARC
  5
6B1
330
1F
100
AcDbEntity
  8
Sichtbare_Kanten_TC_020513_DIN_
  6
Continuous
 62
     7
100
AcDbCircle
 10
91.70480915333684
 20
97.01782659118419
 30
0.0
 40
0.2499999999996438
100
AcDbArc
 50
240.0293843498351
 51
60.02938435013758
  0
ARC
  5
6B2
330
1F
100
AcDbEntity
  8
Sichtbare_Kanten_TC_020513_DIN_
  6
Continuous
 62
     7
100
AcDbCircle
 10
89.70480915333684
 20
101.2838267022462
 30
0.0
 40
0.25
100
AcDbArc
 50
0.0
 51
180.0
  0
ARC
  5
6B3
330
1F
100
AcDbEntity
  8
Sichtbare_Kanten_TC_020513_DIN_
  6
Continuous
 62
     7
100
AcDbCircle
 10
92.70480915333684
 20
97.59449325785118
 30
0.0
 40
0.25
100
AcDbArc
 50
180.0
 51
0.0
  0
ARC
  5
6B4
330
1F
100
AcDbEntity
  8
Sichtbare_Kanten_TC_020513_DIN_
  6
Continuous
 62
     7
100
AcDbCircle
 10
92.70480915333684
 20
101.8604933689132
 30
0.0
 40
0.25
100
AcDbArc
 50
0.0
 51
143.2525021775688
  0
ARC
  5
6B5
330
1F
100
AcDbEntity
  8
Sichtbare_Kanten_TC_020513_DIN_
  6
Continuous
 62
     7
100
AcDbCircle
 10
90.70480915333684
 20
101.8604933689132
 30
0.0
 40
0.24999999999969
100
AcDbArc
 50
36.74749782256372
 51
180.0
  0
ARC
  5
6B6
330
1F
100
AcDbEntity
  8
Sichtbare_Kanten_TC_020513_DIN_
  6
Continuous
 62
     7
100
AcDbCircle
 10
90.70480915333684
 20
98.73749331338118
 30
0.0
 40
0.25
100
AcDbArc
 50
180.0
 51
0.0
  0
ARC
  5
6B7
330
1F
100
AcDbEntity
  8
Sichtbare_Kanten_TC_020513_DIN_
  6
Continuous
 62
     7
100
AcDbCircle
 10
139.0048091533359
 20
120.7274933133812
 30
0.0
 40
8.0
100
AcDbArc
 50
0.0
 51
90.0
  0
ARC
  5
6B8
330
1F
100
AcDbEntity
  8
Sichtbare_Kanten_TC_020513_DIN_
  6
Continuous
 62
     7
100
AcDbCircle
 10
125.7048091533368
 20
129.2274933133812
 30
0.0
 40
0.4999999999998406
100
AcDbArc
 50
220.029018176403
 51
270.0
  0
ARC
  5
6B9
330
1F
100
AcDbEntity
  8
Sichtbare_Kanten_TC_020513_DIN_
  6
Continuous
 62
     7
100
AcDbCircle
 10
110.0075738164049
 20
116.0423955595922
 30
0.0
 40
20.00000000000004
100
AcDbArc
 50
40.02901817645225
 51
64.00779443620853
  0
ARC
  5
6BA
330
1F
100
AcDbEntity
  8
Sichtbare_Kanten_TC_020513_DIN_
  6
Continuous
 62
     7
100
AcDbCircle
 10
115.7048091533368
 20
127.7274933133812
 30
0.0
 40
6.999999999999768
100
AcDbArc
 50
64.00779443621248
 51
180.0
  0
ARC
  5
6BB
330
1F
100
AcDbEntity
  8
Sichtbare_Kanten_TC_020513_DIN_
  6
Continuous
 62
     7
100
AcDbCircle
 10
109.2048091533368
 20
114.2274933133812
 30
0.0
 40
0.5
100
AcDbArc
 50
180.0
 51
251.6923269006511
  0
ARC
  5
6BC
330
1F
100
AcDbEntity
  8
Sichtbare_Kanten_TC_020513_DIN_
  6
Continuous
 62
     7
100
AcDbCircle
 10
113.7595433680519
 20
127.9935528887752
 30
0.0
 40
14.99999999999958
100
AcDbArc
 50
251.6923269007133
 51
334.1179484035685
  0
ARC
  5
6BD
330
1F
100
AcDbEntity
  8
Sichtbare_Kanten_TC_020513_DIN_
  6
Continuous
 62
     7
100
AcDbCircle
 10
127.7048091533368
 20
121.2274933133812
 30
0.0
 40
0.5
100
AcDbArc
 50
90.0
 51
154.1179484035522
  0
ARC
  5
6BE
330
1F
100
AcDbEntity
  8
Sichtbare_Kanten_TC_020513_DIN_
  6
Continuous
 62
     7
100
AcDbCircle
 10
139.0048091533359
 20
120.7274933133812
 30
0.0
 40
1.0
100
AcDbArc
 50
0.0
 51
90.0
  0
ARC
  5
6BF
330
1F
100
AcDbEntity
  8
Sichtbare_Kanten_TC_020513_DIN_
  6
Continuous
 62
     7
100
AcDbCircle
 10
139.9671542383289
 20
115.4108560107902
 30
0.0
 40
0.1000000000000085
100
AcDbArc
 50
90.0
 51
180.0
  0
ARC
  5
6C0
330
1F
100
AcDbEntity
  8
Sichtbare_Kanten_TC_020513_DIN_
  6
Continuous
 62
     7
100
AcDbCircle
 10
139.9671542383289
 20
115.4108560107902
 30
0.0
 40
1.5
100
AcDbArc
 50
90.0
 51
180.0
  0
ARC
  5
6C1
330
1F
100
AcDbEntity
  8
Sichtbare_Kanten_TC_020513_DIN_
  6
Continuous
 62
     7
100
AcDbCircle
 10
44.40480915333689
 20
120.7274933133812
 30
0.0
 40
1.0
100
AcDbArc
 50
90.0
 51
180.0
  0
ARC
  5
6C2
330
1F
100
AcDbEntity
  8
Sichtbare_Kanten_TC_020513_DIN_
  6
Continuous
 62
     7
100
AcDbCircle
 10
55.70480915333684
 20
121.2274933133812
 30
0.0
 40
0.4999999999997614
100
AcDbArc
 50
25.88205159644182
 51
90.0
  0
ARC
  5
6C3
330
1F
100
AcDbEntity
  8
Sichtbare_Kanten_TC_020513_DIN_
  6
Continuous
 62
     7
100
AcDbCircle
 10
69.65007493862083
 20
127.9935528887752
 30
0.0
 40
15.00000000000002
100
AcDbArc
 50
205.8820515964332
 51
288.3076730992867
  0
ARC
  5
6C4
330
1F
100
AcDbEntity
  8
Sichtbare_Kanten_TC_020513_DIN_
  6
Continuous
 62
     7
100
AcDbCircle
 10
74.20480915333684
 20
114.2274933133812
 30
0.0
 40
0.4999999999995331
100
AcDbArc
 50
288.3076730992515
 51
0.0
  0
ARC
  5
6C5
330
1F
100
AcDbEntity
  8
Sichtbare_Kanten_TC_020513_DIN_
  6
Continuous
 62
     7
100
AcDbCircle
 10
67.70480915333684
 20
127.7274933133812
 30
0.0
 40
7.0
100
AcDbArc
 50
0.0
 51
115.9922055637939
  0
ARC
  5
6C6
330
1F
100
AcDbEntity
  8
Sichtbare_Kanten_TC_020513_DIN_
  6
Continuous
 62
     7
100
AcDbCircle
 10
73.40204449026788
 20
116.0423955595922
 30
0.0
 40
19.99999999999941
100
AcDbArc
 50
115.9922055637915
 51
139.9709818235479
  0
ARC
  5
6C7
330
1F
100
AcDbEntity
  8
Sichtbare_Kanten_TC_020513_DIN_
  6
Continuous
 62
     7
100
AcDbCircle
 10
57.70480915333684
 20
129.2274933133812
 30
0.0
 40
0.5
100
AcDbArc
 50
270.0
 51
319.9709818235299
  0
ARC
  5
6C8
330
1F
100
AcDbEntity
  8
Sichtbare_Kanten_TC_020513_DIN_
  6
Continuous
 62
     7
100
AcDbCircle
 10
44.40480915333689
 20
120.7274933133812
 30
0.0
 40
7.999999999999986
100
AcDbArc
 50
90.0
 51
180.0
  0
ARC
  5
6C9
330
1F
100
AcDbEntity
  8
Sichtbare_Kanten_TC_020513_DIN_
  6
Continuous
 62
     7
100
AcDbCircle
 10
62.88684685846386
 20
139.2274933133812
 30
0.0
 40
0.4999999999996588
100
AcDbArc
 50
159.7314654157306
 51
214.7314654156887
  0
ARC
  5
6CA
330
1F
100
AcDbEntity
  8
Sichtbare_Kanten_TC_020513_DIN_
  6
Continuous
 62
     7
100
AcDbCircle
 10
67.70480915333684
 20
140.7274933133812
 30
0.0
 40
4.499999999999678
100
AcDbArc
 50
61.04497562814756
 51
159.7314654157244
  0
ARC
  5
6CB
330
1F
100
AcDbEntity
  8
Sichtbare_Kanten_TC_020513_DIN_
  6
Continuous
 62
     7
100
AcDbCircle
 10
71.96509083416487
 20
148.4274933133812
 30
0.0
 40
4.300000000000274
100
AcDbArc
 50
241.044975628134
 51
90.0
  0
ARC
  5
6CC
330
1F
100
AcDbEntity
  8
Sichtbare_Kanten_TC_020513_DIN_
  6
Continuous
 62
     7
100
AcDbCircle
 10
63.96509083416487
 20
117.7274933133812
 30
0.0
 40
34.99999999999999
100
AcDbArc
 50
90.0
 51
121.4966928421475
  0
ARC
  5
6CD
330
1F
100
AcDbEntity
  8
Sichtbare_Kanten_TC_020513_DIN_
  6
Continuous
 62
     7
100
AcDbCircle
 10
43.70480915333684
 20
136.0884786483762
 30
0.0
 40
1.0
100
AcDbArc
 50
270.0
 51
321.6559393353515
  0
ARC
  5
6CE
330
1F
100
AcDbEntity
  8
Sichtbare_Kanten_TC_020513_DIN_
  6
Continuous
 62
     7
100
AcDbCircle
 10
47.70480915333684
 20
138.7274933133812
 30
0.0
 40
0.4999999999997507
100
AcDbArc
 50
51.65593933543387
 51
141.6559393353379
  0
ARC
  5
6CF
330
1F
100
AcDbEntity
  8
Sichtbare_Kanten_TC_020513_DIN_
  6
Continuous
 62
     7
100
AcDbCircle
 10
57.81856604257087
 20
130.7274933133812
 30
0.0
 40
0.5000000000001614
100
AcDbArc
 50
5.00000000001779
 51
51.65593933534255
  0
ARC
  5
6D0
330
1F
100
AcDbEntity
  8
Sichtbare_Kanten_TC_020513_DIN_
  6
Continuous
 62
     7
100
AcDbCircle
 10
43.44246406834384
 20
115.4108560107902
 30
0.0
 40
1.5
100
AcDbArc
 50
0.0
 51
90.0
  0
ARC
  5
6D1
330
1F
100
AcDbEntity
  8
Sichtbare_Kanten_TC_020513_DIN_
  6
Continuous
 62
     7
100
AcDbCircle
 10
43.44246406834384
 20
115.4108560107902
 30
0.0
 40
0.1000000000000227
100
AcDbArc
 50
0.0
 51
90.0
  0
ARC
  5
6D2
330
1F
100
AcDbEntity
  8
Sichtbare_Kanten_TC_020513_DIN_
  6
Continuous
 62
     7
100
AcDbCircle
 10
125.5910522641019
 20
130.7274933133812
 30
0.0
 40
0.5000000000004383
100
AcDbArc
 50
128.3440606646658
 51
174.9999999999821
  0
ARC
  5
6D3
330
1F
100
AcDbEntity
  8
Sichtbare_Kanten_TC_020513_DIN_
  6
Continuous
 62
     7
100
AcDbCircle
 10
135.7048091533368
 20
138.7274933133812
 30
0.0
 40
0.4999999999995829
100
AcDbArc
 50
38.34406066473083
 51
128.3440606646479
  0
ARC
  5
6D4
330
1F
100
AcDbEntity
  8
Sichtbare_Kanten_TC_020513_DIN_
  6
Continuous
 62
     7
100
AcDbCircle
 10
139.7048091533368
 20
136.0884786483762
 30
0.0
 40
1.000000000000047
100
AcDbArc
 50
218.3440606646161
 51
270.0
  0
ARC
  5
6D5
330
1F
100
AcDbEntity
  8
Sichtbare_Kanten_TC_020513_DIN_
  6
Continuous
 62
     7
100
AcDbCircle
 10
119.4445274725078
 20
117.7274933133812
 30
0.0
 40
35.00000000000034
100
AcDbArc
 50
58.50330715785253
 51
90.0
  0
ARC
  5
6D6
330
1F
100
AcDbEntity
  8
Sichtbare_Kanten_TC_020513_DIN_
  6
Continuous
 62
     7
100
AcDbCircle
 10
111.4445274725078
 20
148.4274933133812
 30
0.0
 40
4.299999999999983
100
AcDbArc
 50
90.0
 51
298.9550243718668
  0
ARC
  5
6D7
330
1F
100
AcDbEntity
  8
Sichtbare_Kanten_TC_020513_DIN_
  6
Continuous
 62
     7
100
AcDbCircle
 10
115.7048091533368
 20
140.7274933133812
 30
0.0
 40
4.500000000000146
100
AcDbArc
 50
20.2685345842798
 51
118.9550243718624
  0
ARC
  5
6D8
330
1F
100
AcDbEntity
  8
Sichtbare_Kanten_TC_020513_DIN_
  6
Continuous
 62
     7
100
AcDbCircle
 10
120.5227714482089
 20
139.2274933133812
 30
0.0
 40
0.4999999999997666
100
AcDbArc
 50
325.2685345843052
 51
20.26853458427087
  0
ARC
  5
6D9
330
1F
100
AcDbEntity
  8
Sichtbare_Kanten_TC_020513_DIN_
  6
Continuous
 62
     7
100
AcDbCircle
 10
240.4882184934828
 20
91.11749331338117
 30
0.0
 40
15.13999999999601
100
AcDbArc
 50
0.0
 51
180.0
  0
ARC
  5
6DA
330
1F
100
AcDbEntity
  8
Sichtbare_Kanten_TC_020513_DIN_
  6
Continuous
 62
     7
100
AcDbCircle
 10
268.2882184934889
 20
123.7274933133812
 30
0.0
 40
0.6999999999999886
100
AcDbArc
 50
180.0
 51
0.0
  0
ARC
  5
6DB
330
1F
100
AcDbEntity
  8
Sichtbare_Kanten_TC_020513_DIN_
  6
Continuous
 62
     7
100
AcDbCircle
 10
268.2882184934889
 20
131.7274933133812
 30
0.0
 40
0.7000000000010118
100
AcDbArc
 50
0.0
 51
180.0
  0
ARC
  5
6DC
330
1F
100
AcDbEntity
  8
Sichtbare_Kanten_TC_020513_DIN_
  6
Continuous
 62
     7
100
AcDbCircle
 10
212.6882184934899
 20
131.7274933133812
 30
0.0
 40
0.6999999999989086
100
AcDbArc
 50
0.0
 51
180.0
  0
ARC
  5
6DD
330
1F
100
AcDbEntity
  8
Sichtbare_Kanten_TC_020513_DIN_
  6
Continuous
 62
     7
100
AcDbCircle
 10
212.6882184934899
 20
123.7274933133812
 30
0.0
 40
0.7000000000010971
100
AcDbArc
 50
180.0
 51
0.0
  0
ARC
  5
6DE
330
1F
100
AcDbEntity
  8
Sichtbare_Kanten_TC_020513_DIN_
  6
Continuous
 62
     7
100
AcDbCircle
 10
216.7882184934798
 20
118.3108560107902
 30
0.0
 40
2.799999999999898
100
AcDbArc
 50
180.0
 51
270.0
  0
ARC
  5
6DF
330
1F
100
AcDbEntity
  8
Sichtbare_Kanten_TC_020513_DIN_
  6
Continuous
 62
     7
100
AcDbCircle
 10
216.7882184934798
 20
118.3108560107902
 30
0.0
 40
1.400000000000006
100
AcDbArc
 50
180.0
 51
270.0
  0
ARC
  5
6E0
330
1F
100
AcDbEntity
  8
Sichtbare_Kanten_TC_020513_DIN_
  6
Continuous
 62
     7
100
AcDbCircle
 10
230.2048557960728
 20
115.0732010957832
 30
0.0
 40
0.5
100
AcDbArc
 50
270.0
 51
0.0
  0
ARC
  5
6E1
330
1F
100
AcDbEntity
  8
Sichtbare_Kanten_TC_020513_DIN_
  6
Continuous
 62
     7
100
AcDbCircle
 10
250.7715811908919
 20
115.0732010957832
 30
0.0
 40
0.5
100
AcDbArc
 50
180.0
 51
270.0
  0
ARC
  5
6E2
330
1F
100
AcDbEntity
  8
Sichtbare_Kanten_TC_020513_DIN_
  6
Continuous
 62
     7
100
AcDbCircle
 10
257.0215811908898
 20
144.5884786483762
 30
0.0
 40
1.49999999999923
100
AcDbArc
 50
226.2398789709993
 51
270.0
  0
ARC
  5
6E3
330
1F
100
AcDbEntity
  8
Sichtbare_Kanten_TC_020513_DIN_
  6
Continuous
 62
     7
100
AcDbCircle
 10
259.9107666122259
 20
144.0884786483762
 30
0.0
 40
1.0
100
AcDbArc
 50
270.0
 51
320.0000000000144
  0
ARC
  5
6E4
330
1F
100
AcDbEntity
  8
Sichtbare_Kanten_TC_020513_DIN_
  6
Continuous
 62
     7
100
AcDbCircle
 10
257.0215811908898
 20
134.8384786483762
 30
0.0
 40
0.25
100
AcDbArc
 50
90.0
 51
164.999999999919
  0
ARC
  5
6E5
330
1F
100
AcDbEntity
  8
Sichtbare_Kanten_TC_020513_DIN_
  6
Continuous
 62
     7
100
AcDbCircle
 10
223.9548557960719
 20
144.5884786483762
 30
0.0
 40
1.5
100
AcDbArc
 50
270.0
 51
313.760121029029
  0
ARC
  5
6E6
330
1F
100
AcDbEntity
  8
Sichtbare_Kanten_TC_020513_DIN_
  6
Continuous
 62
     7
100
AcDbCircle
 10
221.0656703747369
 20
144.0884786483762
 30
0.0
 40
0.9999999999998062
100
AcDbArc
 50
219.9999999999772
 51
270.0
  0
ARC
  5
6E7
330
1F
100
AcDbEntity
  8
Sichtbare_Kanten_TC_020513_DIN_
  6
Continuous
 62
     7
100
AcDbCircle
 10
223.9548557960719
 20
134.8384786483762
 30
0.0
 40
0.2499999999996895
100
AcDbArc
 50
15.00000000008097
 51
90.0
  0
ARC
  5
6E8
330
1F
100
AcDbEntity
  8
Sichtbare_Kanten_TC_020513_DIN_
  6
Continuous
 62
     7
100
AcDbCircle
 10
264.1882184934799
 20
118.3108560107902
 30
0.0
 40
2.799999999999997
100
AcDbArc
 50
270.0
 51
0.0
  0
ARC
  5
6E9
330
1F
100
AcDbEntity
  8
Sichtbare_Kanten_TC_020513_DIN_
  6
Continuous
 62
     7
100
AcDbCircle
 10
264.1882184934799
 20
118.3108560107902
 30
0.0
 40
1.400000000000006
100
AcDbArc
 50
270.0
 51
0.0
  0
ARC
  5
6EA
330
1F
100
AcDbEntity
  8
Sichtbare_Kanten_TC_020513_DIN_
  6
Continuous
 62
     7
100
AcDbCircle
 10
264.3882184934898
 20
117.5898383983742
 30
0.0
 40
0.0999999999999659
100
AcDbArc
 50
180.0
 51
270.0
  0
ARC
  5
6EB
330
1F
100
AcDbEntity
  8
Sichtbare_Kanten_TC_020513_DIN_
  6
Continuous
 62
     7
100
AcDbCircle
 10
264.3882184934898
 20
117.5898383983742
 30
0.0
 40
1.5
100
AcDbArc
 50
180.0
 51
206.9141492018884
  0
ARC
  5
6EC
330
1F
100
AcDbEntity
  8
Sichtbare_Kanten_TC_020513_DIN_
  6
Continuous
 62
     7
100
AcDbCircle
 10
216.5882184934899
 20
117.5898383983742
 30
0.0
 40
0.0999999999999943
100
AcDbArc
 50
270.0
 51
0.0
  0
ARC
  5
6ED
330
1F
100
AcDbEntity
  8
Sichtbare_Kanten_TC_020513_DIN_
  6
Continuous
 62
     7
100
AcDbCircle
 10
216.5882184934899
 20
117.5898383983742
 30
0.0
 40
1.500000000000191
100
AcDbArc
 50
333.0858507981141
 51
0.0
  0
ARC
  5
6EE
330
1F
100
AcDbEntity
  8
Stich_1-Linien_TC_020513_DIN_
  6
DASHED_SPACE
 62
     7
100
AcDbCircle
 10
70.70480915333684
 20
116.7274933133812
 30
0.0
 40
48.93394997171586
100
AcDbArc
 50
132.0836088599962
 51
180.0
  0
ARC
  5
6EF
330
1F
100
AcDbEntity
  8
Stich_1-Linien_TC_020513_DIN_
  6
DASHED_SPACE
 62
     7
100
AcDbCircle
 10
112.7048091533368
 20
116.7274933133812
 30
0.0
 40
48.93394997171599
100
AcDbArc
 50
0.0
 51
41.39673167973007
  0
CIRCLE
  5
6F0
330
1F
100
AcDbEntity
  8
Sichtbare_Kanten_TC_020513_DIN_
  6
Continuous
 62
     7
100
AcDbCircle
 10
115.7048091533368
 20
127.7274933133812
 30
0.0
 40
4.700000000000102
  0
CIRCLE
  5
6F1
330
1F
100
AcDbEntity
  8
Sichtbare_Kanten_TC_020513_DIN_
  6
Continuous
 62
     7
100
AcDbCircle
 10
67.70480915333684
 20
127.7274933133812
 30
0.0
 40
4.700000000000045
  0
CIRCLE
  5
6F2
330
1F
100
AcDbEntity
  8
Sichtbare_Kanten_TC_020513_DIN_
  6
Continuous
 62
     7
100
AcDbCircle
 10
112.7048091533368
 20
116.7274933133812
 30
0.0
 40
1.75
  0
CIRCLE
  5
6F3
330
1F
100
AcDbEntity
  8
Sichtbare_Kanten_TC_020513_DIN_
  6
Continuous
 62
     7
100
AcDbCircle
 10
70.70480915333684
 20
116.7274933133812
 30
0.0
 40
1.75
  0
CIRCLE
  5
6F4
330
1F
100
AcDbEntity
  8
Sichtbare_Kanten_TC_020513_DIN_
  6
Continuous
 62
     7
100
AcDbCircle
 10
240.4882184934828
 20
91.11749331338117
 30
0.0
 40
10.3900000000001
  0
CIRCLE
  5
6F5
330
1F
100
AcDbEntity
  8
Sichtbare_Kanten_TC_020513_DIN_
  6
Continuous
 62
     7
100
AcDbCircle
 10
240.4882184934828
 20
91.11749331338117
 30
0.0
 40
13.38999999999601
  0
SPLINE
  5
6F6
330
1F
100
AcDbEntity
  8
Sichtbare_Kanten_TC_020513_DIN_
  6
Continuous
 62
     7
100
AcDbSpline
210
0.0
220
0.0
230
1.0
 70
     8
 71
     3
 72
    27
 73
    23
 74
    21
 42
0.000000001
 43
0.0000000001
 44
0.00000001
 40
0.0
 40
0.0
 40
0.0
 40
0.0
 40
0.3474587712194329
 40
0.6949175349224148
 40
0.7807670179542592
 40
0.8666048652539893
 40
0.9524475234877094
 40
1.038292882076104
 40
1.122943334366458
 40
1.207593045839082
 40
1.292242477172893
 40
1.376891647661985
 40
1.460164144651108
 40
1.543436530720368
 40
1.626706197602959
 40
1.709975967016807
 40
1.791843740645551
 40
1.873709108849134
 40
1.955577585262954
 40
2.037454974935834
 40
2.278374756849669
 40
2.519294154158035
 40
2.519294154158035
 40
2.519294154158035
 40
2.519294154158035
 10
252.6156035436259
 20
125.4931231747022
 30
0.0
 10
252.7315305562392
 20
125.4983641606231
 30
0.0
 10
252.963384577794
 20
125.5088461471205
 30
0.0
 10
253.2175736528213
 20
125.573060992321
 30
0.0
 10
253.3808119930379
 20
125.6304040658054
 30
0.0
 10
253.4605816582928
 20
125.6622139566168
 30
0.0
 10
253.5389836178279
 20
125.697221708491
 30
0.0
 10
253.6155234915778
 20
125.7352617856249
 30
0.0
 10
253.6900736067424
 20
125.7762446328412
 30
0.0
 10
253.7625178819835
 20
125.8200807244189
 30
0.0
 10
253.8330591204257
 20
125.8669177999355
 30
0.0
 10
253.9011757449626
 20
125.9164404334159
 30
0.0
 10
253.9667531325265
 20
125.9685440242629
 30
0.0
 10
254.0296915278726
 20
126.0231077068185
 30
0.0
 10
254.0902060288474
 20
126.0803475407248
 30
0.0
 10
254.1478214500058
 20
126.1398551704479
 30
0.0
 10
254.2024392385641
 20
126.2015023825531
 30
0.0
 10
254.2539687446391
 20
126.2651487627773
 30
0.0
 10
254.3026238566914
 20
126.3310414300686
 30
0.0
 10
254.3775675114467
 20
126.443176836746
 30
0.0
 10
254.4695170780639
 20
126.6082290963933
 30
0.0
 10
254.5214758418652
 20
126.7604759487647
 30
0.0
 10
254.5474551962038
 20
126.8365993167562
 30
0.0
 11
252.6156035436259
 21
125.4931231747022
 31
0.0
 11
252.9619809845081
 21
125.5205141613181
 31
0.0
 11
253.2996438302772
 21
125.6024372694972
 31
0.0
 11
253.3806144433144
 21
125.6309660899459
 31
0.0
 11
253.4603524494257
 21
125.6627463738985
 31
0.0
 11
253.5387315428212
 21
125.6977560830021
 31
0.0
 11
253.6156035436263
 21
125.7359676143329
 31
0.0
 11
253.6897810883765
 21
125.7767523047538
 31
0.0
 11
253.762200851585
 21
125.8205809665778
 31
0.0
 11
253.8327169976087
 21
125.8674104383516
 31
0.0
 11
253.901178762999
 21
125.9171946607459
 31
0.0
 11
253.966373351573
 21
125.9690017493814
 31
0.0
 11
254.0292883342484
 21
126.0235544330778
 31
0.0
 11
254.0897771314045
 21
126.0807815499735
 31
0.0
 11
254.147692429864
 21
126.1406119166361
 31
0.0
 11
254.2019766950507
 21
126.2018944670719
 31
0.0
 11
254.2534887351989
 21
126.2655218850088
 31
0.0
 11
254.3020941105861
 21
126.3314002957636
 31
0.0
 11
254.3476543511949
 21
126.3994309617388
 31
0.0
 11
254.4628582568647
 21
126.6110211375578
 31
0.0
 11
254.5474551962038
 21
126.8365993167562
 31
0.0
  0
SPLINE
  5
6F7
330
1F
100
AcDbEntity
  8
Sichtbare_Kanten_TC_020513_DIN_
  6
Continuous
 62
     7
100
AcDbSpline
210
0.0
220
0.0
230
1.0
 70
     8
 71
     3
 72
    27
 73
    23
 74
    21
 42
0.000000001
 43
0.0000000001
 44
0.00000001
 40
0.0
 40
0.0
 40
0.0
 40
0.0
 40
0.3474587712199376
 40
0.6949175349232202
 40
0.7807670179547965
 40
0.8666048652543418
 40
0.9524475234878889
 40
1.038292882076271
 40
1.122943334367005
 40
1.20759304583976
 40
1.292242477173279
 40
1.376891647661927
 40
1.460164144650845
 40
1.543436530720238
 40
1.626706197603084
 40
1.709975967017147
 40
1.791843740645987
 40
1.873709108849642
 40
1.955577585263489
 40
2.037454974936385
 40
2.278374756850551
 40
2.519294154158941
 40
2.519294154158941
 40
2.519294154158941
 40
2.519294154158941
 10
252.6156035436248
 20
126.0847887411392
 30
0.0
 10
252.7315305562384
 20
126.0900297270599
 30
0.0
 10
252.9633845777934
 20
126.1005117135567
 30
0.0
 10
253.2175736528208
 20
126.1647265587579
 30
0.0
 10
253.3808119930373
 20
126.2220696322424
 30
0.0
 10
253.460581658292
 20
126.2538795230538
 30
0.0
 10
253.5389836178269
 20
126.2888872749281
 30
0.0
 10
253.6155234915769
 20
126.326927352062
 30
0.0
 10
253.6900736067416
 20
126.3679101992781
 30
0.0
 10
253.762517881983
 20
126.4117462908556
 30
0.0
 10
253.8330591204252
 20
126.458583366372
 30
0.0
 10
253.9011757449619
 20
126.5081059998521
 30
0.0
 10
253.9667531325255
 20
126.560209590699
 30
0.0
 10
254.0296915278717
 20
126.6147732732547
 30
0.0
 10
254.0902060288465
 20
126.6720131071613
 30
0.0
 10
254.1478214500047
 20
126.7315207368848
 30
0.0
 10
254.2024392385631
 20
126.7931679489902
 30
0.0
 10
254.2539687446383
 20
126.8568143292143
 30
0.0
 10
254.3026238566906
 20
126.9227069965056
 30
0.0
 10
254.3775675114464
 20
127.0348424031828
 30
0.0
 10
254.4695170780639
 20
127.1998946628302
 30
0.0
 10
254.5214758418651
 20
127.3521415152017
 30
0.0
 10
254.5474551962038
 20
127.4282648831932
 30
0.0
 11
252.6156035436248
 21
126.0847887411392
 31
0.0
 11
252.9619809845075
 21
126.1121797277547
 31
0.0
 11
253.2996438302768
 21
126.1941028359342
 31
0.0
 11
253.3806144433138
 21
126.2226316563829
 31
0.0
 11
253.4603524494248
 21
126.2544119403355
 31
0.0
 11
253.5387315428202
 21
126.289421649439
 31
0.0
 11
253.6156035436252
 21
126.3276331807699
 31
0.0
 11
253.6897810883759
 21
126.3684178711907
 31
0.0
 11
253.7622008515847
 21
126.4122465330146
 31
0.0
 11
253.8327169976083
 21
126.4590760047881
 31
0.0
 11
253.9011787629982
 21
126.5088602271821
 31
0.0
 11
253.966373351572
 21
126.5606673158175
 31
0.0
 11
254.0292883342474
 21
126.6152199995141
 31
0.0
 11
254.0897771314036
 21
126.6724471164101
 31
0.0
 11
254.147692429863
 21
126.732277483073
 31
0.0
 11
254.2019766950497
 21
126.793560033509
 31
0.0
 11
254.2534887351981
 21
126.8571874514459
 31
0.0
 11
254.3020941105854
 21
126.9230658622006
 31
0.0
 11
254.3476543511944
 21
126.9910965281757
 31
0.0
 11
254.4628582568646
 21
127.2026867039948
 31
0.0
 11
254.5474551962038
 21
127.4282648831932
 31
0.0
  0
SPLINE
  5
6F8
330
1F
100
AcDbEntity
  8
Sichtbare_Kanten_TC_020513_DIN_
  6
Continuous
 62
     7
100
AcDbSpline
210
0.0
220
0.0
230
1.0
 70
     8
 71
     3
 72
    27
 73
    23
 74
    21
 42
0.000000001
 43
0.0000000001
 44
0.00000001
 40
0.0
 40
0.0
 40
0.0
 40
0.0
 40
0.3221931108051834
 40
0.6443862595894596
 40
0.7269584000252649
 40
0.8095120345398474
 40
0.8920720119063473
 40
0.9746369352957334
 40
1.058610482935075
 40
1.142583203492398
 40
1.226557532157752
 40
1.310532151926498
 40
1.395811203395678
 40
1.481090504967607
 40
1.566369061935643
 40
1.651648017873934
 40
1.737974449688782
 40
1.824299557385756
 40
1.910627747514707
 40
1.996962013389519
 40
2.258079001630634
 40
2.519195807813145
 40
2.519195807813145
 40
2.519195807813145
 40
2.519195807813145
 10
226.4289817907569
 20
126.8365993167562
 30
0.0
 10
226.4651767350195
 20
126.7351618701961
 30
0.0
 10
226.5375666414154
 20
126.5322869706047
 30
0.0
 10
226.6719517980903
 20
126.327817171264
 30
0.0
 10
226.7739727172684
 20
126.2014775937604
 30
0.0
 10
226.8287856801629
 20
126.1396788347374
 30
0.0
 10
226.886233118865
 20
126.0803535256573
 30
0.0
 10
226.9465629659973
 20
126.0232634349053
 30
0.0
 10
227.0096712093263
 20
125.9685406419985
 30
0.0
 10
227.0754521948434
 20
125.9163031468593
 30
0.0
 10
227.1433994578661
 20
125.8669168662652
 30
0.0
 10
227.2137297940235
 20
125.8201969505059
 30
0.0
 10
227.2863351671741
 20
125.776250500456
 30
0.0
 10
227.3610952877012
 20
125.7351699506326
 30
0.0
 10
227.4374892900568
 20
125.6972151178596
 30
0.0
 10
227.5156911007886
 20
125.662277329405
 30
0.0
 10
227.595579086171
 20
125.6304311699647
 30
0.0
 10
227.6770253121515
 20
125.6017527721255
 30
0.0
 10
227.7595676982775
 20
125.5763574203288
 30
0.0
 10
227.8993939428775
 20
125.5395668737601
 30
0.0
 10
228.0995790105502
 20
125.5020134143563
 30
0.0
 10
228.2737486523542
 20
125.4960865823094
 30
0.0
 10
228.3608334433349
 20
125.4931231747022
 30
0.0
 11
226.4289817907569
 21
126.8365993167562
 31
0.0
 11
226.5492493790455
 21
126.5376944672555
 31
0.0
 11
226.7225293547567
 21
126.2660651673243
 31
0.0
 11
226.7744699668145
 21
126.2018753607169
 31
0.0
 11
226.8292235675087
 21
126.1400923059499
 31
0.0
 11
226.8866550413562
 21
126.0807814659209
 31
0.0
 11
226.9466198809616
 21
126.0240259846637
 31
0.0
 11
227.0100576956541
 21
125.9690059843292
 31
0.0
 11
227.0758127610692
 21
125.9167786999485
 31
0.0
 11
227.1437360857075
 21
125.8674014794321
 31
0.0
 11
227.2136805706327
 21
125.8209309957628
 31
0.0
 11
227.2866322249986
 21
125.7767657061911
 31
0.0
 11
227.3613678222013
 21
125.7356907765689
 31
0.0
 11
227.4377373384872
 21
125.6977417408093
 31
0.0
 11
227.5155969198534
 21
125.6629511390892
 31
0.0
 11
227.5957850387826
 21
125.6309805515909
 31
0.0
 11
227.6772066110705
 21
125.6023003870814
 31
0.0
 11
227.7597225400997
 21
125.5769295787079
 31
0.0
 11
227.8431953531301
 21
125.5548865526443
 31
0.0
 11
228.1001750070783
 21
125.5085881779556
 31
0.0
 11
228.3608334433349
 21
125.4931231747022
 31
0.0
  0
SPLINE
  5
6F9
330
1F
100
AcDbEntity
  8
Sichtbare_Kanten_TC_020513_DIN_
  6
Continuous
 62
     7
100
AcDbSpline
210
0.0
220
0.0
230
1.0
 70
     8
 71
     3
 72
    27
 73
    23
 74
    21
 42
0.000000001
 43
0.0000000001
 44
0.00000001
 40
0.0
 40
0.0
 40
0.0
 40
0.0
 40
0.322193110805385
 40
0.6443862595897003
 40
0.7269584000255619
 40
0.8095120345401609
 40
0.8920720119064337
 40
0.9746369352956242
 40
1.05861048293488
 40
1.142583203492225
 40
1.226557532157549
 40
1.310532151926359
 40
1.39581120339555
 40
1.481090504967423
 40
1.56636906193544
 40
1.651648017873717
 40
1.737974449688596
 40
1.824299557385531
 40
1.910627747514279
 40
1.996962013388841
 40
2.258079001629511
 40
2.51919580781185
 40
2.51919580781185
 40
2.51919580781185
 40
2.51919580781185
 10
226.4289817907569
 20
127.4282648831932
 30
0.0
 10
226.4651767350197
 20
127.3268274366331
 30
0.0
 10
226.537566641416
 20
127.1239525370419
 30
0.0
 10
226.6719517980908
 20
126.9194827377009
 30
0.0
 10
226.7739727172691
 20
126.7931431601974
 30
0.0
 10
226.8287856801635
 20
126.7313444011745
 30
0.0
 10
226.8862331188655
 20
126.6720190920943
 30
0.0
 10
226.9465629659975
 20
126.6149290013423
 30
0.0
 10
227.0096712093264
 20
126.5602062084355
 30
0.0
 10
227.0754521948434
 20
126.5079687132963
 30
0.0
 10
227.1433994578662
 20
126.4585824327021
 30
0.0
 10
227.2137297940234
 20
126.4118625169427
 30
0.0
 10
227.2863351671742
 20
126.3679160668931
 30
0.0
 10
227.3610952877012
 20
126.3268355170696
 30
0.0
 10
227.4374892900569
 20
126.2888806842966
 30
0.0
 10
227.5156911007887
 20
126.253942895842
 30
0.0
 10
227.595579086171
 20
126.2220967364017
 30
0.0
 10
227.6770253121514
 20
126.1934183385624
 30
0.0
 10
227.7595676982772
 20
126.1680229867659
 30
0.0
 10
227.8993939428769
 20
126.1312324401971
 30
0.0
 10
228.0995790105493
 20
126.0936789807933
 30
0.0
 10
228.2737486523531
 20
126.0877521487464
 30
0.0
 10
228.3608334433338
 20
126.0847887411392
 30
0.0
 11
226.4289817907569
 21
127.4282648831932
 31
0.0
 11
226.549249379046
 21
127.1293600336924
 31
0.0
 11
226.7225293547573
 21
126.8577307337612
 31
0.0
 11
226.7744699668152
 21
126.7935409271539
 31
0.0
 11
226.8292235675094
 21
126.7317578723869
 31
0.0
 11
226.8866550413566
 21
126.6724470323579
 31
0.0
 11
226.9466198809617
 21
126.6156915511007
 31
0.0
 11
227.0100576956541
 21
126.5606715507663
 31
0.0
 11
227.0758127610692
 21
126.5084442663855
 31
0.0
 11
227.1437360857074
 21
126.4590670458691
 31
0.0
 11
227.2136805706328
 21
126.4125965621997
 31
0.0
 11
227.2866322249987
 21
126.3684312726281
 31
0.0
 11
227.3613678222013
 21
126.3273563430059
 31
0.0
 11
227.4377373384872
 21
126.2894073072464
 31
0.0
 11
227.5155969198534
 21
126.2546167055262
 31
0.0
 11
227.5957850387826
 21
126.2226461180279
 31
0.0
 11
227.6772066110705
 21
126.1939659535183
 31
0.0
 11
227.7597225400995
 21
126.1685951451448
 31
0.0
 11
227.8431953531296
 21
126.1465521190813
 31
0.0
 11
228.1001750070773
 21
126.1002537443926
 31
0.0
 11
228.3608334433338
 21
126.0847887411392
 31
0.0
  0
LWPOLYLINE
  5
6FA
330
1F
100
AcDbEntity
  8
Sichtbare_Kanten_TC_020513_DIN_
  6
Continuous
 62
     7
100
AcDbPolyline
 90
       25
 70
     0
 43
0.0
 10
142.7337846400919
 20
132.3449703727462
 10
142.7126750590979
 20
132.3913347397541
 10
142.6924237849889
 20
132.4380558405612
 10
142.6730284335789
 20
132.4851220522612
 10
142.6544985416119
 20
132.5325211559032
 10
142.6368341090858
 20
132.5802415285802
 10
142.6200422885598
 20
132.6282712493632
 10
142.6041254642188
 20
132.6765978012772
 10
142.5890884044349
 20
132.7252098594402
 10
142.5749358775798
 20
132.7740952048992
 10
142.5616702678379
 20
132.8232416187022
 10
142.5492963435829
 20
132.8726371799202
 10
142.5378164889989
 20
132.9222705636712
 10
142.5272450092019
 20
132.9721048150752
 10
142.5175842883768
 20
133.0221017871592
 10
142.5088367107089
 20
133.0722501550412
 10
142.5010022761999
 20
133.1225368056982
 10
142.4940881374059
 20
133.1729486261102
 10
142.4880895259558
 20
133.2234742913932
 10
142.4830088260359
 20
133.2741006885262
 10
142.4788508060159
 20
133.3248147044872
 10
142.4756130817119
 20
133.3756044183461
 10
142.4733004214938
 20
133.4264573131292
 10
142.4719104411778
 20
133.4773602758142
 10
142.4714455249489
 20
133.5283013854712
  0
LWPOLYLINE
  5
6FB
330
1F
100
AcDbEntity
  8
Sichtbare_Kanten_TC_020513_DIN_
  6
Continuous
 62
     7
100
AcDbPolyline
 90
       25
 70
     0
 43
0.0
 10
143.8714465739909
 20
133.5283013854712
 10
143.8716778400129
 20
133.5028311286661
 10
143.8723740222638
 20
133.4773793493002
 10
143.8735303523719
 20
133.4519531999322
 10
143.8751492145238
 20
133.4265580449792
 10
143.8772282245338
 20
133.4012010369992
 10
143.8797673824009
 20
133.3758881364562
 10
143.8827666881259
 20
133.3506253038142
 10
143.8862237575229
 20
133.3254190955852
 10
143.8901409747779
 20
133.3002760682792
 10
143.8945159557048
 20
133.2752015863152
 10
143.8993463161169
 20
133.2502033982962
 10
143.9046320560159
 20
133.2252862725942
 10
143.9103707912149
 20
133.2004692826962
 10
143.9165577533429
 20
133.1757715020871
 10
143.9231905582129
 20
133.1511982951852
 10
143.9302668216409
 20
133.1267556224562
 10
143.9377865436259
 20
133.1024494443632
 10
143.9457449557959
 20
133.0782863174172
 10
143.9541396739659
 20
133.0542716060372
 10
143.9629730823219
 20
133.0304112706872
 10
143.9722380283059
 20
133.0067118678782
 10
143.9819345119179
 20
132.9831787620282
 10
143.9920601489719
 20
132.9598179136011
 10
144.0026149394689
 20
132.9366358791082
  0
LWPOLYLINE
  5
6FC
330
1F
100
AcDbEntity
  8
Sichtbare_Kanten_TC_020513_DIN_
  6
Continuous
 62
     7
100
AcDbPolyline
 90
       25
 70
     0
 43
0.0
 10
142.9621276500409
 20
145.0884785924642
 10
143.0278405788118
 20
145.1802959714622
 10
143.0972728374189
 20
145.2694752488822
 10
143.1703505160988
 20
145.3558972154352
 10
143.2469591739359
 20
145.4393997464872
 10
143.3267769458469
 20
145.5196287904471
 10
143.4096560123149
 20
145.5964639459342
 10
143.4954843166049
 20
145.6698217664452
 10
143.5841498019879
 20
145.7396235738491
 10
143.6755427959149
 20
145.8057859216422
 10
143.7695488574689
 20
145.8682277475092
 10
143.8660583141029
 20
145.9268667970392
 10
143.9649567248999
 20
145.9816220079152
 10
144.0661344173138
 20
146.0324111257282
 10
144.1694006564799
 20
146.0791197095602
 10
144.2744025829019
 20
146.1215832505912
 10
144.3809923770609
 20
146.1597516809202
 10
144.4890412929238
 20
146.1935797010152
 10
144.5984134319008
 20
146.2230243955352
 10
144.7089633586589
 20
146.2480368886682
 10
144.8203811290449
 20
146.2685444627492
 10
144.9324760081948
 20
146.2845220838282
 10
145.0451120975199
 20
146.2959530626032
 10
145.1581487300579
 20
146.3028230939601
 10
145.2714476230319
 20
146.3051154885982
  0
LWPOLYLINE
  5
6FD
330
1F
100
AcDbEntity
  8
Sichtbare_Kanten_TC_020513_DIN_
  6
Continuous
 62
     7
100
AcDbPolyline
 90
       25
 70
     0
 43
0.0
 10
145.2714476230319
 20
144.9051156316492
 10
145.1998004558269
 20
144.9032810006832
 10
145.1284870746318
 20
144.8977973733632
 10
145.0576409938519
 20
144.8886921678271
 10
144.9873981120769
 20
144.8759963784902
 10
144.9178990962689
 20
144.8597386155822
 10
144.8492774608318
 20
144.8399462972372
 10
144.7816738727269
 20
144.8166504178732
 10
144.7152242305459
 20
144.7898795877192
 10
144.6501836421668
 20
144.7597208295562
 10
144.5869001987159
 20
144.7263422284811
 10
144.5254907252968
 20
144.6898308072782
 10
144.4660720470129
 20
144.6502664361692
 10
144.4087562205968
 20
144.6077325616571
 10
144.3536576869669
 20
144.5623114381522
 10
144.3008885028539
 20
144.5140841279722
 10
144.2505631091779
 20
144.4631340776182
 10
144.2028483989419
 20
144.4096043382382
 10
144.1580137851419
 20
144.3538012777062
 10
144.1161450984658
 20
144.2958619867061
 10
144.0773186328589
 20
144.2359068666192
 10
144.0416035297099
 20
144.1740575109212
 10
144.0090713145909
 20
144.1104319368102
 10
143.9797958972638
 20
144.0451529298522
 10
143.9538511874858
 20
143.9783396993372
  0
LWPOLYLINE
  5
6FE
330
1F
100
AcDbEntity
  8
Sichtbare_Kanten_TC_020513_DIN_
  6
Continuous
 62
     7
100
AcDbPolyline
 90
       25
 70
     0
 43
0.0
 10
143.9538511874858
 20
143.9783396993372
 10
143.9489564540569
 20
143.9644482408262
 10
143.9436587932289
 20
143.9488008294792
 10
143.9380416515049
 20
143.9314928327292
 10
143.9321956279459
 20
143.9126243863792
 10
143.9262041690529
 20
143.8922932420462
 10
143.9201602580729
 20
143.8705971513482
 10
143.9141473415079
 20
143.8476362500882
 10
143.9082536342328
 20
143.8235070977902
 10
143.9025673511209
 20
143.7983074460722
 10
143.8971767070469
 20
143.7721386228292
 10
143.8921699168859
 20
143.7450959954952
 10
143.8876876475989
 20
143.7178495202752
 10
143.8838967921919
 20
143.6919620309562
 10
143.8807472827618
 20
143.6675253186912
 10
143.8781795146649
 20
143.6445489202231
 10
143.8761314990699
 20
143.6230423722952
 10
143.8745483997049
 20
143.6030175958371
 10
143.8733706119239
 20
143.5844817434042
 10
143.8725337627118
 20
143.5674455438352
 10
143.8719853999799
 20
143.5519197259642
 10
143.8716611507119
 20
143.5379138265342
 10
143.8715014102639
 20
143.5254385743831
 10
143.8714513423619
 20
143.5145023141592
 10
143.8714465739909
 20
143.5051157747002
  0
LWPOLYLINE
  5
6FF
330
1F
100
AcDbEntity
  8
Sichtbare_Kanten_TC_020513_DIN_
  6
Continuous
 62
     7
100
AcDbPolyline
 90
       25
 70
     0
 43
0.0
 10
141.5546927097018
 20
145.3094735418052
 10
141.5347466113749
 20
145.3184023175932
 10
141.5147742870038
 20
145.3273299012872
 10
141.4947828891459
 20
145.3362574849822
 10
141.4747676494299
 20
145.3451850686762
 10
141.4547333362278
 20
145.3541114602782
 10
141.4346799495399
 20
145.3630390439722
 10
141.4146051051799
 20
145.3719654355731
 10
141.3945135715189
 20
145.3808930192681
 10
141.3744053485569
 20
145.3898194108702
 10
141.3542804362949
 20
145.3987469945642
 10
141.3341388347329
 20
145.4076757703512
 10
141.3139805438698
 20
145.4166045461392
 10
141.2938127162639
 20
145.4255321298332
 10
141.2736329677289
 20
145.4344609056212
 10
141.2534436824499
 20
145.4433884893152
 10
141.2332472446138
 20
145.4523160730091
 10
141.2130412700358
 20
145.4612424646112
 10
141.1928281428989
 20
145.4701700483062
 10
141.1726078632059
 20
145.4790964399072
 10
141.1523851993259
 20
145.4880228315092
 10
141.1321553828898
 20
145.4969504152031
 10
141.1119207980809
 20
145.5058779988972
 10
141.0916862132729
 20
145.5148067746852
 10
141.0714468600929
 20
145.5237343583792
  0
LWPOLYLINE
  5
700
330
1F
100
AcDbEntity
  8
Sichtbare_Kanten_TC_020513_DIN_
  6
Continuous
 62
     7
100
AcDbPolyline
 90
       25
 70
     0
 43
0.0
 10
143.8714465739909
 20
144.4126882825582
 10
143.8714036586468
 20
144.4259634290432
 10
143.8712749126138
 20
144.4392385755272
 10
143.8710627200779
 20
144.4525125299192
 10
143.8707623126688
 20
144.4657864843101
 10
143.8703784587559
 20
144.4790592466092
 10
143.8699087741559
 20
144.4923332010002
 10
143.8693532588659
 20
144.5056071553922
 10
143.8687119128888
 20
144.5188799176902
 10
143.8679847362218
 20
144.5321538720822
 10
143.8671741130528
 20
144.5454278264731
 10
143.8662776591959
 20
144.5587029729572
 10
143.8652953746499
 20
144.5719769273492
 10
143.8642272594159
 20
144.5852520738332
 10
143.8630733134929
 20
144.5985272203182
 10
143.8618359210669
 20
144.6118011747091
 10
143.8605126979529
 20
144.6250751291012
 10
143.8591060283368
 20
144.6383478913992
 10
143.8576111438459
 20
144.6516218457912
 10
143.8560328128519
 20
144.6648958001822
 10
143.8543710353549
 20
144.6781685624812
 10
143.8526210429849
 20
144.6914425168721
 10
143.8507876041119
 20
144.7047164712642
 10
143.8488707187358
 20
144.7179916177482
 10
143.8468680026709
 20
144.7312667642332
  0
LWPOLYLINE
  5
701
330
1F
100
AcDbEntity
  8
Sichtbare_Kanten_TC_020513_DIN_
  6
Continuous
 62
     7
100
AcDbPolyline
 90
       25
 70
     0
 43
0.0
 10
143.8468680026709
 20
144.7312667642332
 10
143.8451180103008
 20
144.7426286016202
 10
143.8429436328589
 20
144.7562411103932
 10
143.8402280452428
 20
144.7718301091882
 10
143.8368591907209
 20
144.7891273771022
 10
143.8327273967449
 20
144.8078611169552
 10
143.8277134540259
 20
144.8277607236602
 10
143.8217124583899
 20
144.8485567842222
 10
143.8146028163608
 20
144.8699763093682
 10
143.8062796237649
 20
144.8917498861042
 10
143.7966236713108
 20
144.9136069093442
 10
143.7855276706399
 20
144.9352767739982
 10
143.7728747966469
 20
144.9564888749812
 10
143.7585506084149
 20
144.9769714151122
 10
143.7424788119969
 20
144.9964132581441
 10
143.7249931934059
 20
145.0141003404352
 10
143.7062224986728
 20
145.0298645768852
 10
143.6861810329139
 20
145.0437190805172
 10
143.6648854854288
 20
145.0556805406302
 10
143.6423501613319
 20
145.0657632623412
 10
143.6185893657388
 20
145.0739791665762
 10
143.5936197879499
 20
145.0803449426382
 10
143.5674533488929
 20
145.0848737035482
 10
143.5401067378699
 20
145.0875797544212
 10
143.5115942599949
 20
145.0884785924642
  0
LWPOLYLINE
  5
702
330
1F
100
AcDbEntity
  8
Sichtbare_Kanten_TC_020513_DIN_
  6
Continuous
 62
     7
100
AcDbPolyline
 90
       25
 70
     0
 43
0.0
 10
142.5639447810829
 20
145.0884785924642
 10
142.5161871555029
 20
145.0890174184532
 10
142.4678978564919
 20
145.0906374726982
 10
142.4191078784648
 20
145.0933435235712
 10
142.3698529842079
 20
145.0971403394431
 10
142.3201689365089
 20
145.1020303045002
 10
142.2700914981548
 20
145.1080193792072
 10
142.2196492793739
 20
145.1151111398432
 10
142.1688828113259
 20
145.1233103547782
 10
142.1178230884258
 20
145.1326206002921
 10
142.0665368678749
 20
145.1430418763852
 10
142.0162853839578
 20
145.1543238435482
 10
141.9677624347389
 20
145.1662376199452
 10
141.9210633876509
 20
145.1786473069882
 10
141.8762812259379
 20
145.1914193902702
 10
141.8335113170328
 20
145.2044191632962
 10
141.7928466441809
 20
145.2175119195672
 10
141.7543825748149
 20
145.2305641446802
 10
141.7182168605509
 20
145.2434399400442
 10
141.6844377162639
 20
145.2560057912561
 10
141.6531428935709
 20
145.2681257997242
 10
141.6244277599039
 20
145.2796676431392
 10
141.5983852985088
 20
145.2904954229092
 10
141.5751084926309
 20
145.3004756246302
 10
141.5546927097018
 20
145.3094735418052
  0
LWPOLYLINE
  5
703
330
1F
100
AcDbEntity
  8
Sichtbare_Kanten_TC_020513_DIN_
  6
Continuous
 62
     7
100
AcDbPolyline
 90
       25
 70
     0
 43
0.0
 10
39.40700145985488
 20
132.9366358791082
 10
39.41755863453784
 20
132.9598179136011
 10
39.42768188740587
 20
132.9831787620282
 10
39.43738075520383
 20
133.0067118678782
 10
39.44664570118783
 20
133.0304112706872
 10
39.45547672535787
 20
133.0542716060372
 10
39.46387382771388
 20
133.0782863174172
 10
39.47183223988384
 20
133.1024494443632
 10
39.47935196186887
 20
133.1267556224562
 10
39.48642822529683
 20
133.1511982951852
 10
39.49306103016784
 20
133.1757715020871
 10
39.49924560810888
 20
133.2004692826962
 10
39.50498672749387
 20
133.2252862725942
 10
39.51027485157886
 20
133.2502033982962
 10
39.51510521199089
 20
133.2752015863152
 10
39.51947780873184
 20
133.3002760682792
 10
39.52339264180085
 20
133.3254190955852
 10
39.52684971119788
 20
133.3506253038142
 10
39.52984901692287
 20
133.3758881364562
 10
39.53239055897586
 20
133.4012010369992
 10
39.53446956898586
 20
133.4265580449792
 10
39.53609081532386
 20
133.4519531999322
 10
39.53724476124688
 20
133.4773793493002
 10
39.53794094349786
 20
133.5028311286661
 10
39.53816982533289
 20
133.5283013854712
  0
LWPOLYLINE
  5
704
330
1F
100
AcDbEntity
  8
Sichtbare_Kanten_TC_020513_DIN_
  6
Continuous
 62
     7
100
AcDbPolyline
 90
       25
 70
     0
 43
0.0
 10
40.93817325856088
 20
133.5283013854712
 10
40.93771072651788
 20
133.4773602758142
 10
40.93631836201587
 20
133.4264573131292
 10
40.93400570179784
 20
133.3756044183461
 10
40.93076797749387
 20
133.3248147044872
 10
40.92660995747485
 20
133.2741006885262
 10
40.92153164173988
 20
133.2234742913932
 10
40.91553303028985
 20
133.1729486261102
 10
40.90861412312387
 20
133.1225368056982
 10
40.90078445698583
 20
133.0722501550412
 10
40.89203449513286
 20
133.0221017871592
 10
40.88237377430784
 20
132.9721048150752
 10
40.87180229451087
 20
132.9222705636712
 10
40.86032482411287
 20
132.8726371799202
 10
40.84795089985784
 20
132.8232416187022
 10
40.83468529011589
 20
132.7740952048992
 10
40.82052799488884
 20
132.7252098594402
 10
40.80549331929086
 20
132.6765978012772
 10
40.78957649494987
 20
132.6282712493632
 10
40.77278229023784
 20
132.5802415285802
 10
40.75512024189789
 20
132.5325211559032
 10
40.73659034993085
 20
132.4851220522612
 10
40.71719738270684
 20
132.4380558405612
 10
40.69694134022586
 20
132.3913347397541
 10
40.67583175923284
 20
132.3449703727462
  0
LWPOLYLINE
  5
705
330
1F
100
AcDbEntity
  8
Sichtbare_Kanten_TC_020513_DIN_
  6
Continuous
 62
     7
100
AcDbPolyline
 90
       25
 70
     0
 43
0.0
 10
39.45576759602488
 20
143.9783396993372
 10
39.42982288624688
 20
144.0451469693872
 10
39.40055938984784
 20
144.1104104791372
 10
39.36803909565788
 20
144.1740098272062
 10
39.33234783436689
 20
144.2358258043022
 10
39.29355713154683
 20
144.2957392011382
 10
39.25173374440084
 20
144.3536308084222
 10
39.20695873524585
 20
144.4093814168662
 10
39.15930362965486
 20
144.4628706250882
 10
39.10893532063386
 20
144.5138886247372
 10
39.05613037373388
 20
144.5621660028192
 10
39.00100799824588
 20
144.6076181207392
 10
38.94368740345789
 20
144.6501663003652
 10
38.88428303028985
 20
144.6897306714742
 10
38.82291408802888
 20
144.7262337480282
 10
38.75969024922284
 20
144.7595944677092
 10
38.69472595478885
 20
144.7897353444782
 10
38.62821670796285
 20
144.8165478978842
 10
38.56054397847083
 20
144.8398819242212
 10
38.49186512257484
 20
144.8597004686092
 10
38.42231365467887
 20
144.8759773050042
 10
38.35203262593188
 20
144.8886850152702
 10
38.28115555073583
 20
144.8977949891782
 10
38.20982071186887
 20
144.9032810006832
 10
38.13817116047784
 20
144.9051156316492
  0
LWPOLYLINE
  5
706
330
1F
100
AcDbEntity
  8
Sichtbare_Kanten_TC_020513_DIN_
  6
Continuous
 62
     7
100
AcDbPolyline
 90
       25
 70
     0
 43
0.0
 10
38.13817116047784
 20
146.3051154885982
 10
38.25150104786786
 20
146.3028219018672
 10
38.36446377064584
 20
146.2959566388822
 10
38.47692104603686
 20
146.2845483098722
 10
38.58874412800685
 20
146.2686243329732
 10
38.69979473378083
 20
146.2482109342312
 10
38.80993934895383
 20
146.2233367238732
 10
38.91903492237884
 20
146.1940291200372
 10
39.02694793965185
 20
146.1603143487662
 10
39.13354488636884
 20
146.1222198281972
 10
39.23868271138088
 20
146.0797765527462
 10
39.34195610310388
 20
146.0331406865812
 10
39.44310280110284
 20
145.9824433599202
 10
39.54201790119987
 20
145.9277632508962
 10
39.63857265736488
 20
145.8691778455472
 10
39.73266216542083
 20
145.8067646299102
 10
39.82417198445188
 20
145.7406022821162
 10
39.91298290516784
 20
145.6707682882042
 10
39.99897571827785
 20
145.5973389421202
 10
40.08204551960785
 20
145.5203953061792
 10
40.16205879475484
 20
145.4400279794432
 10
40.23872467305085
 20
145.3565135274622
 10
40.31191440846288
 20
145.2700104985921
 10
40.38152786518987
 20
145.1806297574732
 10
40.44749351765483
 20
145.0884785924642
  0
LWPOLYLINE
  5
707
330
1F
100
AcDbEntity
  8
Sichtbare_Kanten_TC_020513_DIN_
  6
Continuous
 62
     7
100
AcDbPolyline
 90
       25
 70
     0
 43
0.0
 10
39.53816982533289
 20
143.5051157747002
 10
39.53816982533289
 20
143.5145023141592
 10
39.53811737324588
 20
143.5254385743831
 10
39.53796001698385
 20
143.5379138265342
 10
39.53763576771587
 20
143.5519197259642
 10
39.53708263661287
 20
143.5674455438352
 10
39.53624817158584
 20
143.5844817434042
 10
39.53507038380485
 20
143.6030175958371
 10
39.53348728443984
 20
143.6230423722952
 10
39.53144165303087
 20
143.6445489202231
 10
39.52887150074884
 20
143.6675253186912
 10
39.52571960713289
 20
143.6919620309562
 10
39.52192875172489
 20
143.7178495202752
 10
39.51744648243783
 20
143.7450959954952
 10
39.51243969227687
 20
143.7721386228292
 10
39.50705143238884
 20
143.7983074460722
 10
39.50136276509187
 20
143.8235070977902
 10
39.49546905781688
 20
143.8476362500882
 10
39.48945614125188
 20
143.8705971513482
 10
39.48341461445688
 20
143.8922932420462
 10
39.47742553974985
 20
143.9126243863792
 10
39.47157474781886
 20
143.9314928327292
 10
39.46596237446687
 20
143.9488008294792
 10
39.46065994526788
 20
143.9644482408262
 10
39.45576759602488
 20
143.9783396993372
  0
LWPOLYLINE
  5
708
330
1F
100
AcDbEntity
  8
Sichtbare_Kanten_TC_020513_DIN_
  6
Continuous
 62
     7
100
AcDbPolyline
 90
       25
 70
     0
 43
0.0
 10
39.89802452351484
 20
145.0884785924642
 10
39.87240883137588
 20
145.0877549920772
 10
39.84772774006683
 20
145.0855770383571
 10
39.82398601795984
 20
145.0819340024682
 10
39.80119320179784
 20
145.0768175397612
 10
39.77937313343887
 20
145.0702157293052
 10
39.75852581288189
 20
145.0621214185452
 10
39.73867031361488
 20
145.0525238786431
 10
39.71982094075088
 20
145.0414123807641
 10
39.70198723103385
 20
145.0287785802572
 10
39.68517872120788
 20
145.0146129403802
 10
39.66941448475689
 20
144.9989023481102
 10
39.65467544819688
 20
144.9816241536832
 10
39.64096161152685
 20
144.9627521310542
 10
39.62824913288984
 20
144.9422612462732
 10
39.61653324391284
 20
144.9201300416682
 10
39.60579963948084
 20
144.8963322911952
 10
39.59632488514785
 20
144.8717620645262
 10
39.58828064228885
 20
144.8475315843322
 10
39.58154293324384
 20
144.8240330491752
 10
39.57597347523586
 20
144.8016598497122
 10
39.57143875386083
 20
144.7808053765982
 10
39.56781479145889
 20
144.7618594442102
 10
39.56496330525283
 20
144.7452154432032
 10
39.56275078083888
 20
144.7312667642332
  0
LWPOLYLINE
  5
709
330
1F
100
AcDbEntity
  8
Sichtbare_Kanten_TC_020513_DIN_
  6
Continuous
 62
     7
100
AcDbPolyline
 90
       25
 70
     0
 43
0.0
 10
39.56275078083888
 20
144.7312667642332
 10
39.56074806477488
 20
144.7179916177482
 10
39.55883117939789
 20
144.7047164712642
 10
39.55699535633886
 20
144.6914425168721
 10
39.55525013233984
 20
144.6781685624812
 10
39.55358597065788
 20
144.6648958001822
 10
39.55200763966485
 20
144.6516218457912
 10
39.55051513935888
 20
144.6383478913992
 10
39.54910370137088
 20
144.6250751291012
 10
39.54778286244283
 20
144.6118011747091
 10
39.54654308583184
 20
144.5985272203182
 10
39.54538913990888
 20
144.5852520738332
 10
39.54432579304586
 20
144.5719769273492
 10
39.54333874012883
 20
144.5587029729572
 10
39.54244228627084
 20
144.5454278264731
 10
39.54163166310184
 20
144.5321538720822
 10
39.54090687062188
 20
144.5188799176902
 10
39.54026790882983
 20
144.5056071553922
 10
39.53971000935388
 20
144.4923332010002
 10
39.53923794056783
 20
144.4790592466092
 10
39.53885647084087
 20
144.4657864843101
 10
39.53855606343188
 20
144.4525125299192
 10
39.53834148670984
 20
144.4392385755272
 10
39.53821274067786
 20
144.4259634290432
 10
39.53816982533289
 20
144.4126882825582
  0
LWPOLYLINE
  5
70A
330
1F
100
AcDbEntity
  8
Sichtbare_Kanten_TC_020513_DIN_
  6
Continuous
 62
     7
100
AcDbPolyline
 90
       25
 70
     0
 43
0.0
 10
42.33817192341684
 20
145.5237343583792
 10
42.31793495442287
 20
145.5148067746852
 10
42.29769798542884
 20
145.5058779988972
 10
42.27746101643487
 20
145.4969504152031
 10
42.25723358418384
 20
145.4880228315092
 10
42.23701092030387
 20
145.4790964399072
 10
42.21678825642488
 20
145.4701700483062
 10
42.19657989765983
 20
145.4612424646112
 10
42.17637153889586
 20
145.4523160730091
 10
42.15617271687387
 20
145.4433884893152
 10
42.13598343159583
 20
145.4344609056212
 10
42.11580368306085
 20
145.4255321298332
 10
42.09563823963987
 20
145.4166045461392
 10
42.07548233296285
 20
145.4076757703512
 10
42.05534073139984
 20
145.3987469945642
 10
42.03521343495288
 20
145.3898194108702
 10
42.01510521199089
 20
145.3808930192681
 10
41.99501129414483
 20
145.3719654355731
 10
41.97494121815583
 20
145.3630390439722
 10
41.95488544728187
 20
145.3541114602782
 10
41.93484874989383
 20
145.3451850686762
 10
41.91483589436388
 20
145.3362574849822
 10
41.89484211232087
 20
145.3273299012872
 10
41.87487217213487
 20
145.3184023175932
 10
41.85492607380786
 20
145.3094735418052
  0
LWPOLYLINE
  5
70B
330
1F
100
AcDbEntity
  8
Sichtbare_Kanten_TC_020513_DIN_
  6
Continuous
 62
     7
100
AcDbPolyline
 90
       25
 70
     0
 43
0.0
 10
41.85492607380786
 20
145.3094735418052
 10
41.83443638111987
 20
145.3004434381222
 10
41.81108089711086
 20
145.2904298578002
 10
41.78495022084087
 20
145.2795663152432
 10
41.75613971974286
 20
145.2679910932272
 10
41.72474952961784
 20
145.2558353219721
 10
41.69087024952785
 20
145.2432384763452
 10
41.65459247853187
 20
145.2303316865652
 10
41.61602112080487
 20
145.2172532354092
 10
41.57524200703483
 20
145.2041378293721
 10
41.53235527302684
 20
145.1911189828612
 10
41.48745151783788
 20
145.1783337865562
 10
41.44063087727488
 20
145.1659157548642
 10
41.39198395039483
 20
145.1540019784662
 10
41.34160610462988
 20
145.1427271638601
 10
41.29045101429784
 20
145.1323607240412
 10
41.23954864765983
 20
145.1231041227072
 10
41.18893715168883
 20
145.1149537835811
 10
41.13865467335586
 20
145.1079025541042
 10
41.08872982289188
 20
145.1019492421842
 10
41.03919597889785
 20
145.0970878873562
 10
40.99008651997485
 20
145.0933149133412
 10
40.94144436146587
 20
145.0906255517692
 10
40.89329334523086
 20
145.0890150342672
 10
40.84567161824089
 20
145.0884785924642
  0
LWPOLYLINE
  5
70C
330
1F
100
AcDbEntity
  8
Sichtbare_Kanten_TC_020513_DIN_
  6
Continuous
 62
     7
100
AcDbPolyline
 90
       25
 70
     0
 43
0.0
 10
256.1760012579159
 20
132.9366358791082
 10
256.1858288717459
 20
132.9598179136011
 10
256.1956529092979
 20
132.9831787620282
 10
256.2054745626649
 20
133.0067118678782
 10
256.2152926397519
 20
133.0304112706872
 10
256.2251095247459
 20
133.0542716060372
 10
256.2349264097409
 20
133.0782863174172
 10
256.2447421026419
 20
133.1024494443632
 10
256.2545589876369
 20
133.1267556224562
 10
256.2643770647238
 20
133.1511982951852
 10
256.2741987180899
 20
133.1757715020871
 10
256.2840227556419
 20
133.2004692826962
 10
256.2938515615658
 20
133.2252862725942
 10
256.3036791753958
 20
133.2502033982962
 10
256.3135032129478
 20
133.2752015863152
 10
256.3233248663139
 20
133.3002760682792
 10
256.3331429434019
 20
133.3254190955852
 10
256.3429598283958
 20
133.3506253038142
 10
256.3527767133909
 20
133.3758881364562
 10
256.3625924062918
 20
133.4012010369992
 10
256.3724092912869
 20
133.4265580449792
 10
256.3822273683738
 20
133.4519531999322
 10
256.3920490217398
 20
133.4773793493002
 10
256.4018730592918
 20
133.5028311286661
 10
256.4117006731228
 20
133.5283013854712
  0
LWPOLYLINE
  5
70D
330
1F
100
AcDbEntity
  8
Sichtbare_Kanten_TC_020513_DIN_
  6
Continuous
 62
     7
100
AcDbPolyline
 90
       25
 70
     0
 43
0.0
 10
256.4117006731228
 20
133.5283013854712
 10
256.4018730592928
 20
133.4773602758142
 10
256.3920490217408
 20
133.4264573131292
 10
256.3822273683749
 20
133.3756044183461
 10
256.3724092912869
 20
133.3248147044872
 10
256.3625924062928
 20
133.2741006885262
 10
256.3527767133909
 20
133.2234742913932
 10
256.3429598283968
 20
133.1729486261102
 10
256.3331429434019
 20
133.1225368056982
 10
256.3233248663148
 20
133.0722501550412
 10
256.3135032129488
 20
133.0221017871592
 10
256.3036791753968
 20
132.9721048150752
 10
256.2938515615658
 20
132.9222705636712
 10
256.2840227556428
 20
132.8726371799202
 10
256.2741987180908
 20
132.8232416187022
 10
256.2643770647248
 20
132.7740952048992
 10
256.2545589876369
 20
132.7252098594402
 10
256.2447421026428
 20
132.6765978012772
 10
256.2349264097409
 20
132.6282712493632
 10
256.2251095247468
 20
132.5802415285802
 10
256.2152926397519
 20
132.5325211559032
 10
256.2054745626649
 20
132.4851220522612
 10
256.1956529092988
 20
132.4380558405612
 10
256.1858288717468
 20
132.3913347397541
 10
256.1760012579159
 20
132.3449703727462
  0
LWPOLYLINE
  5
70E
330
1F
100
AcDbEntity
  8
Sichtbare_Kanten_TC_020513_DIN_
  6
Continuous
 62
     7
100
AcDbPolyline
 90
       25
 70
     0
 43
0.0
 10
262.8614155721858
 20
145.0884785924642
 10
262.8148476553158
 20
145.0877549920772
 10
262.7678434324458
 20
145.0855770383571
 10
262.7204648924069
 20
145.0819340024682
 10
262.6727740240289
 20
145.0768175397612
 10
262.6248328161439
 20
145.0702157293052
 10
262.5767056417659
 20
145.0621214185452
 10
262.5284497213559
 20
145.0525238786431
 10
262.4801294279289
 20
145.0414123807641
 10
262.4318067503168
 20
145.0287785802572
 10
262.3835436773499
 20
145.0146129403802
 10
262.3354045820429
 20
144.9989023481102
 10
262.2874824476438
 20
144.9816241536832
 10
262.2398774099538
 20
144.9627521310542
 10
262.1926800680359
 20
144.9422612462732
 10
262.1459834051328
 20
144.9201300416682
 10
262.0998851728629
 20
144.8963322911952
 10
262.0560900640678
 20
144.8717620645262
 10
262.0161573362539
 20
144.8475315843322
 10
261.9800941419799
 20
144.8240330491752
 10
261.9479219389159
 20
144.8016598497122
 10
261.9196526479918
 20
144.7808053765982
 10
261.8952981901358
 20
144.7618594442102
 10
261.8748800230219
 20
144.7452154432032
 10
261.8584076833919
 20
144.7312667642332
  0
LWPOLYLINE
  5
70F
330
1F
100
AcDbEntity
  8
Sichtbare_Kanten_TC_020513_DIN_
  6
Continuous
 62
     7
100
AcDbPolyline
 90
       25
 70
     0
 43
0.0
 10
261.6733138036929
 20
144.7312667642332
 10
261.6805426550109
 20
144.7435453210562
 10
261.6891638708308
 20
144.7576918874472
 10
261.6991798353398
 20
144.7734823499412
 10
261.7105905485348
 20
144.7906949792591
 10
261.7233960104188
 20
144.8091044698452
 10
261.7376009893619
 20
144.8284867082332
 10
261.7532031011779
 20
144.8486199651452
 10
261.7702047300538
 20
144.8692789350242
 10
261.7886082601749
 20
144.8902395044062
 10
261.8084136915409
 20
144.9112799440122
 10
261.8296210241518
 20
144.9321761403772
 10
261.8522326421938
 20
144.9527027879452
 10
261.8762270879948
 20
144.9726202760432
 10
261.9011108350949
 20
144.9913921628682
 10
261.9266645384029
 20
145.0087883744932
 10
261.9528500509458
 20
145.0247230802272
 10
261.9796220731929
 20
145.0391068731042
 10
262.0069376898009
 20
145.0518527303431
 10
262.0347325277529
 20
145.0628640924192
 10
262.0627181005679
 20
145.0719812188842
 10
262.0907799673279
 20
145.0791409288142
 10
262.1188561392029
 20
145.0843038831441
 10
262.1468893957339
 20
145.0874295507162
 10
262.1748177480898
 20
145.0884785924642
  0
LWPOLYLINE
  5
710
330
1F
100
AcDbEntity
  8
Sichtbare_Kanten_TC_020513_DIN_
  6
Continuous
 62
     7
100
AcDbPolyline
 90
       25
 70
     0
 43
0.0
 10
261.8584076833919
 20
144.7312667642332
 10
261.8430654478268
 20
144.7179916177482
 10
261.8277160597039
 20
144.7047164712642
 10
261.8123547506528
 20
144.6914425168721
 10
261.7969839048578
 20
144.6781685624812
 10
261.7816035223199
 20
144.6648958001822
 10
261.7662159872249
 20
144.6516218457912
 10
261.7508189153868
 20
144.6383478913992
 10
261.7354146909909
 20
144.6250751291012
 10
261.7200009298518
 20
144.6118011747091
 10
261.7045824003409
 20
144.5985272203182
 10
261.6891543340879
 20
144.5852520738332
 10
261.6737191152769
 20
144.5719769273492
 10
261.6582815122798
 20
144.5587029729572
 10
261.6428367567258
 20
144.5454278264731
 10
261.6273872327998
 20
144.5321538720822
 10
261.6119353246878
 20
144.5188799176902
 10
261.5964786482049
 20
144.5056071553922
 10
261.5810195875358
 20
144.4923332010002
 10
261.5655581426809
 20
144.4790592466092
 10
261.5500943136409
 20
144.4657864843101
 10
261.5346281004148
 20
144.4525125299192
 10
261.5191595030028
 20
144.4392385755272
 10
261.5036885214049
 20
144.4259634290432
 10
261.4882175398069
 20
144.4126882825582
  0
LWPOLYLINE
  5
711
330
1F
100
AcDbEntity
  8
Sichtbare_Kanten_TC_020513_DIN_
  6
Continuous
 62
     7
100
AcDbPolyline
 90
       25
 70
     0
 43
0.0
 10
261.4882175398069
 20
144.4126882825582
 10
261.4959542226989
 20
144.4259634290432
 10
261.5036885214049
 20
144.4392385755272
 10
261.5114228201109
 20
144.4525125299192
 10
261.5191571188169
 20
144.4657864843101
 10
261.5268890333379
 20
144.4790592466092
 10
261.5346185636719
 20
144.4923332010002
 10
261.5423480940059
 20
144.5056071553922
 10
261.5500776243408
 20
144.5188799176902
 10
261.5578023863038
 20
144.5321538720822
 10
261.5655271482668
 20
144.5454278264731
 10
261.5732495260438
 20
144.5587029729572
 10
261.5809695196349
 20
144.5719769273492
 10
261.5886871290409
 20
144.5852520738332
 10
261.5963999700749
 20
144.5985272203182
 10
261.6041104269228
 20
144.6118011747091
 10
261.6118161153988
 20
144.6250751291012
 10
261.6195194196898
 20
144.6383478913992
 10
261.6272179556089
 20
144.6516218457912
 10
261.6349117231569
 20
144.6648958001822
 10
261.6426007223329
 20
144.6781685624812
 10
261.6502873373229
 20
144.6914425168721
 10
261.6579667997559
 20
144.7047164712642
 10
261.6656414938169
 20
144.7179916177482
 10
261.6733138036929
 20
144.7312667642332
  0
LWPOLYLINE
  5
712
330
1F
100
AcDbEntity
  8
Sichtbare_Kanten_TC_020513_DIN_
  6
Continuous
 62
     7
100
AcDbPolyline
 90
       25
 70
     0
 43
0.0
 10
264.2882196378909
 20
145.5237343583792
 10
264.2881457281319
 20
145.5148067746852
 10
264.2879263830389
 20
145.5058779988972
 10
264.2875592184269
 20
145.4969504152031
 10
264.2870490026679
 20
145.4880228315092
 10
264.2863909673889
 20
145.4790964399072
 10
264.2855851125919
 20
145.4701700483062
 10
264.2846362066468
 20
145.4612424646112
 10
264.2835394811829
 20
145.4523160730091
 10
264.2822973203859
 20
145.4433884893152
 10
264.2809097242558
 20
145.4344609056212
 10
264.2793743086058
 20
145.4255321298332
 10
264.2776934576239
 20
145.4166045461392
 10
264.2758695554938
 20
145.4076757703512
 10
264.2738978338439
 20
145.3987469945642
 10
264.2717806768619
 20
145.3898194108702
 10
264.2695180845459
 20
145.3808930192681
 10
264.2671100568969
 20
145.3719654355731
 10
264.2645589781008
 20
145.3630390439722
 10
264.2618600797858
 20
145.3541114602782
 10
264.2590181303228
 20
145.3451850686762
 10
264.2560307455269
 20
145.3362574849822
 10
264.2529003095829
 20
145.3273299012872
 10
264.2496220541199
 20
145.3184023175932
 10
264.2462007475099
 20
145.3094735418052
  0
LWPOLYLINE
  5
713
330
1F
100
AcDbEntity
  8
Sichtbare_Kanten_TC_020513_DIN_
  6
Continuous
 62
     7
100
AcDbPolyline
 90
       25
 70
     0
 43
0.0
 10
262.8672091436589
 20
145.3094735418052
 10
262.8689209890569
 20
145.3184023175932
 10
262.8705589246948
 20
145.3273299012872
 10
262.8721253347599
 20
145.3362574849822
 10
262.8736178350648
 20
145.3451850686762
 10
262.8750388097968
 20
145.3541114602782
 10
262.8763882589539
 20
145.3630390439722
 10
262.8776637983528
 20
145.3719654355731
 10
262.8788678121769
 20
145.3808930192681
 10
262.8800003004278
 20
145.3898194108702
 10
262.8810588789189
 20
145.3987469945642
 10
262.8820435476508
 20
145.4076757703512
 10
262.8829566908089
 20
145.4166045461392
 10
262.8837959242069
 20
145.4255321298332
 10
262.8845636320318
 20
145.4344609056212
 10
262.8852574300969
 20
145.4433884893152
 10
262.8858797025879
 20
145.4523160730091
 10
262.8864280653198
 20
145.4612424646112
 10
262.8869025182929
 20
145.4701700483062
 10
262.8873054456909
 20
145.4790964399072
 10
262.8876344633309
 20
145.4880228315092
 10
262.8878895712098
 20
145.4969504152031
 10
262.8880731535159
 20
145.5058779988972
 10
262.8881828260628
 20
145.5148067746852
 10
262.8882185888489
 20
145.5237343583792
  0
LWPOLYLINE
  5
714
330
1F
100
AcDbEntity
  8
Sichtbare_Kanten_TC_020513_DIN_
  6
Continuous
 62
     7
100
AcDbPolyline
 90
       25
 70
     0
 43
0.0
 10
264.2462007475099
 20
145.3094735418052
 10
264.2425624799929
 20
145.3004434381222
 10
264.2382518720829
 20
145.2904298578002
 10
264.2331926298339
 20
145.2795663152432
 10
264.2273036909309
 20
145.2679910932272
 10
264.2205016088689
 20
145.2558353219721
 10
264.2127053213319
 20
145.2432384763452
 10
264.2038361501889
 20
145.2303316865652
 10
264.1938130331239
 20
145.2172532354092
 10
264.1825525236328
 20
145.2041378293721
 10
264.1699735593999
 20
145.1911189828612
 10
264.1559974622928
 20
145.1783337865562
 10
264.1405431699949
 20
145.1659157548642
 10
264.1235272360049
 20
145.1540019784662
 10
264.1048685980038
 20
145.1427271638601
 10
264.0848032903868
 20
145.1323607240412
 10
264.0636698675359
 20
145.1231041227072
 10
264.0414754820068
 20
145.1149537835811
 10
264.0182320547299
 20
145.1079025541042
 10
263.9939467382628
 20
145.1019492421842
 10
263.9686338377198
 20
145.0970878873562
 10
263.9423005056578
 20
145.0933149133412
 10
263.9149562788209
 20
145.0906255517692
 10
263.8866130781369
 20
145.0890150342672
 10
263.8572780561649
 20
145.0884785924642
  0
LWPOLYLINE
  5
715
330
1F
100
AcDbEntity
  8
Sichtbare_Kanten_TC_020513_DIN_
  6
Continuous
 62
     7
100
AcDbPolyline
 90
       25
 70
     0
 43
0.0
 10
262.6727477979858
 20
145.0884785924642
 10
262.6870147657598
 20
145.0889876161312
 10
262.7007619810308
 20
145.0905087266652
 10
262.7139894437988
 20
145.0930311952322
 10
262.7266971540648
 20
145.0965431009032
 10
262.7388827276428
 20
145.1010360990262
 10
262.7505485487188
 20
145.1064994607661
 10
262.7616946172918
 20
145.1129200731012
 10
262.7723209333618
 20
145.1202907834742
 10
262.7824251127439
 20
145.1285984788632
 10
262.7919976186948
 20
145.1378217015952
 10
262.8010074567999
 20
145.1479056153981
 10
262.8094689321719
 20
145.1588228021352
 10
262.8173939657409
 20
145.1705494199481
 10
262.8247968626229
 20
145.1830652032592
 10
262.8316919279299
 20
145.1963451181142
 10
262.8380600881778
 20
145.2102735315062
 10
262.8437344503609
 20
145.2243104253502
 10
262.8487388563359
 20
145.2382233415342
 10
262.8531162214479
 20
145.2518406186792
 10
262.8569118452278
 20
145.2649905954092
 10
262.8601734113898
 20
145.2775016103482
 10
262.8629486036499
 20
145.2892008100242
 10
262.8652779531678
 20
145.2999153409692
 10
262.8672091436589
 20
145.3094735418052
  0
LWPOLYLINE
  5
716
330
1F
100
AcDbEntity
  8
Sichtbare_Kanten_TC_020513_DIN_
  6
Continuous
 62
     7
100
AcDbPolyline
 90
       25
 70
     0
 43
0.0
 10
255.5726925802428
 20
143.9783396993372
 10
255.5450360250669
 20
144.0451469693872
 10
255.5174354982569
 20
144.1104104791372
 10
255.4898707342338
 20
144.1740098272062
 10
255.4623274278839
 20
144.2358258043022
 10
255.4347841215329
 20
144.2957392011382
 10
255.4072253179738
 20
144.3536308084222
 10
255.3796319437219
 20
144.4093814168662
 10
255.3519861173819
 20
144.4628706250882
 10
255.3243200254628
 20
144.5138886247372
 10
255.2967111540039
 20
144.5621660028192
 10
255.2691416216088
 20
144.6076181207392
 10
255.2415959310719
 20
144.6501663003652
 10
255.2140538168148
 20
144.6897306714742
 10
255.1864985895348
 20
144.7262337480282
 10
255.1589123678399
 20
144.7595944677092
 10
255.1312772703359
 20
144.7897353444782
 10
255.1036052179528
 20
144.8165478978842
 10
255.0759820413779
 20
144.8398819242212
 10
255.0483970117758
 20
144.8597004686092
 10
255.0208334398459
 20
144.8759773050042
 10
254.9932734441949
 20
144.8886850152702
 10
254.9656979513359
 20
144.8977949891782
 10
254.9380902719688
 20
144.9032810006832
 10
254.9104313326069
 20
144.9051156316492
  0
LWPOLYLINE
  5
717
330
1F
100
AcDbEntity
  8
Sichtbare_Kanten_TC_020513_DIN_
  6
Continuous
 62
     7
100
AcDbPolyline
 90
       25
 70
     0
 43
0.0
 10
254.9104313326069
 20
146.3051154885982
 10
254.9380616617389
 20
146.3014533792232
 10
254.9656407308769
 20
146.2905051980702
 10
254.9931852293208
 20
146.2723233972282
 10
255.0207142305569
 20
146.2469651971552
 10
255.0482456159779
 20
146.2144854341242
 10
255.0757960748869
 20
146.1749377523152
 10
255.1033846807669
 20
146.1283805642811
 10
255.1310257387358
 20
146.0748734746672
 10
255.1586429548459
 20
146.0146942411162
 10
255.1862124872399
 20
145.9480777059292
 10
255.2137522173118
 20
145.8751800332751
 10
255.2412800264559
 20
145.7961585794182
 10
255.2688137960629
 20
145.7111683164332
 10
255.2963714075289
 20
145.6203689847682
 10
255.3239719343378
 20
145.5239155564992
 10
255.3516201448639
 20
145.4220083032342
 10
255.3792552423669
 20
145.3151359830592
 10
255.4068772268489
 20
145.2035763536192
 10
255.4345063638879
 20
145.0875499520992
 10
255.4621569585999
 20
144.9672868524282
 10
255.4897968244749
 20
144.8432448182792
 10
255.5174211931428
 20
144.7157743249632
 10
255.5450467539029
 20
144.5851292882652
 10
255.5726925802428
 20
144.4515624318811
  0
LWPOLYLINE
  5
718
330
1F
100
AcDbEntity
  8
Sichtbare_Kanten_TC_020513_DIN_
  6
Continuous
 62
     7
100
AcDbPolyline
 90
       25
 70
     0
 43
0.0
 10
255.9841207933619
 20
143.5051157747002
 10
255.9702138376429
 20
143.5145023141592
 10
255.9544543695639
 20
143.5254385743831
 10
255.9370367002679
 20
143.5379138265342
 10
255.9181551408958
 20
143.5519197259642
 10
255.8980051946838
 20
143.5674455438352
 10
255.8767823648649
 20
143.5844817434042
 10
255.8546797704888
 20
143.6030175958371
 10
255.8318941068839
 20
143.6230423722952
 10
255.8086196851918
 20
143.6445489202231
 10
255.7850520086479
 20
143.6675253186912
 10
255.7613865804868
 20
143.6919620309562
 10
255.7378165197569
 20
143.7178495202752
 10
255.7146017027098
 20
143.7450959954952
 10
255.6930581999019
 20
143.7721386228292
 10
255.6735591364098
 20
143.7983074460722
 10
255.6560008001519
 20
143.8235070977902
 10
255.6402770948608
 20
143.8476362500882
 10
255.6262807321739
 20
143.8705971513482
 10
255.6139080000119
 20
143.8922932420462
 10
255.6030528021049
 20
143.9126243863792
 10
255.5936090421868
 20
143.9314928327292
 10
255.5854718160819
 20
143.9488008294792
 10
255.5785350275239
 20
143.9644482408262
 10
255.5726925802428
 20
143.9783396993372
  0
LWPOLYLINE
  5
719
330
1F
100
AcDbEntity
  8
Sichtbare_Kanten_TC_020513_DIN_
  6
Continuous
 62
     7
100
AcDbPolyline
 90
       25
 70
     0
 43
0.0
 10
255.5726925802428
 20
144.4515624318811
 10
255.5895988416869
 20
144.3748905931212
 10
255.6077019643979
 20
144.3026461873742
 10
255.6266860437588
 20
144.2348494802212
 10
255.6462315988739
 20
144.1715171609611
 10
255.6660251093109
 20
144.1126706872672
 10
255.6857470941739
 20
144.0583303247182
 10
255.7050816488459
 20
144.0085139547082
 10
255.7237283659179
 20
143.9632060800292
 10
255.7422499132349
 20
143.9206257138942
 10
255.7609812689028
 20
143.8797810350152
 10
255.7798139524658
 20
143.8407006536222
 10
255.7986382913789
 20
143.8034096036642
 10
255.8173446130949
 20
143.7679353032802
 10
255.8358232450679
 20
143.7343027864192
 10
255.8539668989379
 20
143.7025382791252
 10
255.8716647100648
 20
143.6726703916282
 10
255.8888093900879
 20
143.6447229657861
 10
255.9052888822758
 20
143.6187246118282
 10
255.9209970903598
 20
143.5947003637052
 10
255.9358219576079
 20
143.5726764474602
 10
255.9496561956609
 20
143.5526790891382
 10
255.9623901319699
 20
143.5347368989682
 10
255.9739140939909
 20
143.5188725267142
 10
255.9841207933619
 20
143.5051157747002
  0
LWPOLYLINE
  5
71A
330
1F
100
AcDbEntity
  8
Sichtbare_Kanten_TC_020513_DIN_
  6
Continuous
 62
     7
100
AcDbPolyline
 90
       25
 70
     0
 43
0.0
 10
224.9923161936009
 20
143.5051157747002
 10
225.0025228929719
 20
143.5188725267142
 10
225.0140468549929
 20
143.5347368989682
 10
225.0267807913028
 20
143.5526790891382
 10
225.0406150293549
 20
143.5726764474602
 10
225.0554398966038
 20
143.5947003637052
 10
225.0711481046878
 20
143.6187246118282
 10
225.0876275968749
 20
143.6447229657861
 10
225.1047722768979
 20
143.6726703916282
 10
225.1224700880249
 20
143.7025382791252
 10
225.1406137418949
 20
143.7343027864192
 10
225.1590923738679
 20
143.7679353032802
 10
225.1777986955839
 20
143.8034096036642
 10
225.1966230344968
 20
143.8407006536222
 10
225.2154557180598
 20
143.8797810350152
 10
225.2341870737279
 20
143.9206257138942
 10
225.2527086210448
 20
143.9632060800292
 10
225.2713553381169
 20
144.0085139547082
 10
225.2906898927888
 20
144.0583303247182
 10
225.3104118776519
 20
144.1126706872672
 10
225.3302053880889
 20
144.1715171609611
 10
225.3497509432038
 20
144.2348494802212
 10
225.3687350225648
 20
144.3026461873742
 10
225.3868381452759
 20
144.3748905931212
 10
225.4037444067199
 20
144.4515624318811
  0
LWPOLYLINE
  5
71B
330
1F
100
AcDbEntity
  8
Sichtbare_Kanten_TC_020513_DIN_
  6
Continuous
 62
     7
100
AcDbPolyline
 90
       25
 70
     0
 43
0.0
 10
225.4037444067199
 20
144.4515624318811
 10
225.4313747358518
 20
144.5850529943202
 10
225.4589538049899
 20
144.7154774938322
 10
225.4864983034329
 20
144.8425963197442
 10
225.5140273046688
 20
144.9661698613852
 10
225.5415586900908
 20
145.0859573159902
 10
225.5691091489989
 20
145.2017214570732
 10
225.5966977548799
 20
145.3132202897762
 10
225.6243388128479
 20
145.4202010904052
 10
225.6519560289579
 20
145.5220821176262
 10
225.6795243692599
 20
145.6185319696162
 10
225.7070640993319
 20
145.7093849454612
 10
225.7345931005668
 20
145.7944753442502
 10
225.7621268701748
 20
145.8736374650692
 10
225.7896844816398
 20
145.9467079911922
 10
225.8172850084499
 20
146.0135212217062
 10
225.8449332189748
 20
146.0738876138422
 10
225.8725683164788
 20
146.1275007997242
 10
225.9001903009608
 20
146.1742344175072
 10
225.9278194379999
 20
146.2139978681302
 10
225.9554700327109
 20
146.2467005525322
 10
225.9831098985868
 20
146.2722113404962
 10
226.0107330751608
 20
146.2904718194692
 10
226.0383598280149
 20
146.3014498029442
 10
226.0660056543538
 20
146.3051154885982
  0
LWPOLYLINE
  5
71C
330
1F
100
AcDbEntity
  8
Sichtbare_Kanten_TC_020513_DIN_
  6
Continuous
 62
     7
100
AcDbPolyline
 90
       25
 70
     0
 43
0.0
 10
225.4037444067199
 20
143.9783396993372
 10
225.3979019594389
 20
143.9644482408262
 10
225.3909651708799
 20
143.9488008294792
 10
225.3828279447748
 20
143.9314928327292
 10
225.3733841848568
 20
143.9126243863792
 10
225.3625289869499
 20
143.8922932420462
 10
225.3501562547879
 20
143.8705971513482
 10
225.3361598921018
 20
143.8476362500882
 10
225.3204361868098
 20
143.8235070977902
 10
225.3028778505519
 20
143.7983074460722
 10
225.2833787870599
 20
143.7721386228292
 10
225.2618352842528
 20
143.7450959954952
 10
225.2386204672058
 20
143.7178495202752
 10
225.2150504064748
 20
143.6919620309562
 10
225.1913849783139
 20
143.6675253186912
 10
225.1678173017699
 20
143.6445489202231
 10
225.1445428800779
 20
143.6230423722952
 10
225.1217572164728
 20
143.6030175958371
 10
225.0996546220969
 20
143.5844817434042
 10
225.0784317922788
 20
143.5674455438352
 10
225.0582818460658
 20
143.5519197259642
 10
225.0394002866939
 20
143.5379138265342
 10
225.0219826173978
 20
143.5254385743831
 10
225.0062231493189
 20
143.5145023141592
 10
224.9923161936009
 20
143.5051157747002
  0
LWPOLYLINE
  5
71D
330
1F
100
AcDbEntity
  8
Sichtbare_Kanten_TC_020513_DIN_
  6
Continuous
 62
     7
100
AcDbPolyline
 90
       25
 70
     0
 43
0.0
 10
226.0660056543538
 20
144.9051156316492
 10
226.0383490991778
 20
144.9032810006832
 10
226.0107473802758
 20
144.8977973733632
 10
225.9831838083459
 20
144.8886921678271
 10
225.9556393099018
 20
144.8759963784902
 10
225.9280971956439
 20
144.8597386155822
 10
225.9005383920859
 20
144.8399462972372
 10
225.8729450178339
 20
144.8166504178732
 10
225.8452991914938
 20
144.7898795877192
 10
225.8176330995749
 20
144.7597208295562
 10
225.7900242281148
 20
144.7263422284811
 10
225.7624546957209
 20
144.6898308072782
 10
225.7349090051848
 20
144.6502664361692
 10
225.7073668909269
 20
144.6077325616571
 10
225.6798116636469
 20
144.5623114381522
 10
225.6522254419518
 20
144.5140841279722
 10
225.6245903444478
 20
144.4631340776182
 10
225.5969182920649
 20
144.4096043382382
 10
225.5692951154898
 20
144.3538012777062
 10
225.5417100858879
 20
144.2958619867061
 10
225.5141465139578
 20
144.2359068666192
 10
225.4865865183068
 20
144.1740575109212
 10
225.4590110254478
 20
144.1104319368102
 10
225.4314033460809
 20
144.0451529298522
 10
225.4037444067199
 20
143.9783396993372
  0
LWPOLYLINE
  5
71E
330
1F
100
AcDbEntity
  8
Sichtbare_Kanten_TC_020513_DIN_
  6
Continuous
 62
     7
100
AcDbPolyline
 90
       25
 70
     0
 43
0.0
 10
224.8004357290469
 20
132.3449703727462
 10
224.7906081152158
 20
132.3913347397541
 10
224.7807840776638
 20
132.4380558405612
 10
224.7709624242979
 20
132.4851220522612
 10
224.7611443472108
 20
132.5325211559032
 10
224.7513274622158
 20
132.5802415285802
 10
224.7415105772219
 20
132.6282712493632
 10
224.7316948843198
 20
132.6765978012772
 10
224.7218779993259
 20
132.7252098594402
 10
224.7120599222378
 20
132.7740952048992
 10
224.7022382688718
 20
132.8232416187022
 10
224.6924142313198
 20
132.8726371799202
 10
224.6825854253968
 20
132.9222705636712
 10
224.6727578115658
 20
132.9721048150752
 10
224.6629337740138
 20
133.0221017871592
 10
224.6531121206479
 20
133.0722501550412
 10
224.6432940435609
 20
133.1225368056982
 10
224.6334771585658
 20
133.1729486261102
 10
224.6236602735719
 20
133.2234742913932
 10
224.6138445806698
 20
133.2741006885262
 10
224.6040276956759
 20
133.3248147044872
 10
224.5942096185879
 20
133.3756044183461
 10
224.5843879652218
 20
133.4264573131292
 10
224.5745639276698
 20
133.4773602758142
 10
224.5647363138398
 20
133.5283013854712
  0
LWPOLYLINE
  5
71F
330
1F
100
AcDbEntity
  8
Sichtbare_Kanten_TC_020513_DIN_
  6
Continuous
 62
     7
100
AcDbPolyline
 90
       25
 70
     0
 43
0.0
 10
224.5647363138398
 20
133.5283013854712
 10
224.5745639276698
 20
133.5028311286661
 10
224.5843879652218
 20
133.4773793493002
 10
224.5942096185879
 20
133.4519531999322
 10
224.6040276956749
 20
133.4265580449792
 10
224.6138445806698
 20
133.4012010369992
 10
224.6236602735709
 20
133.3758881364562
 10
224.6334771585658
 20
133.3506253038142
 10
224.6432940435609
 20
133.3254190955852
 10
224.6531121206479
 20
133.3002760682792
 10
224.6629337740138
 20
133.2752015863152
 10
224.6727578115658
 20
133.2502033982962
 10
224.6825854253958
 20
133.2252862725942
 10
224.6924142313198
 20
133.2004692826962
 10
224.7022382688718
 20
133.1757715020871
 10
224.7120599222378
 20
133.1511982951852
 10
224.7218779993249
 20
133.1267556224562
 10
224.7316948843198
 20
133.1024494443632
 10
224.7415105772209
 20
133.0782863174172
 10
224.7513274622158
 20
133.0542716060372
 10
224.7611443472099
 20
133.0304112706872
 10
224.7709624242979
 20
133.0067118678782
 10
224.7807840776638
 20
132.9831787620282
 10
224.7906081152158
 20
132.9598179136011
 10
224.8004357290458
 20
132.9366358791082
  0
LWPOLYLINE
  5
720
330
1F
100
AcDbEntity
  8
Sichtbare_Kanten_TC_020513_DIN_
  6
Continuous
 62
     7
100
AcDbPolyline
 90
       25
 70
     0
 43
0.0
 10
216.7302362394538
 20
145.3094735418052
 10
216.7268149328429
 20
145.3184023175932
 10
216.7235366773808
 20
145.3273299012872
 10
216.7204062414369
 20
145.3362574849822
 10
216.7174188566409
 20
145.3451850686762
 10
216.7145769071778
 20
145.3541114602782
 10
216.7118780088629
 20
145.3630390439722
 10
216.7093269300659
 20
145.3719654355731
 10
216.7069189024169
 20
145.3808930192681
 10
216.7046563101019
 20
145.3898194108702
 10
216.7025391531189
 20
145.3987469945642
 10
216.7005674314698
 20
145.4076757703512
 10
216.6987435293398
 20
145.4166045461392
 10
216.6970626783568
 20
145.4255321298332
 10
216.6955272627079
 20
145.4344609056212
 10
216.6941396665778
 20
145.4433884893152
 10
216.6928975057808
 20
145.4523160730091
 10
216.6918007803168
 20
145.4612424646112
 10
216.6908518743719
 20
145.4701700483062
 10
216.6900460195739
 20
145.4790964399072
 10
216.6893879842959
 20
145.4880228315092
 10
216.6888777685368
 20
145.4969504152031
 10
216.6885106039249
 20
145.5058779988972
 10
216.6882912588319
 20
145.5148067746852
 10
216.6882173490728
 20
145.5237343583792
  0
LWPOLYLINE
  5
721
330
1F
100
AcDbEntity
  8
Sichtbare_Kanten_TC_020513_DIN_
  6
Continuous
 62
     7
100
AcDbPolyline
 90
       25
 70
     0
 43
0.0
 10
218.0882183981148
 20
145.5237343583792
 10
218.0882541609009
 20
145.5148067746852
 10
218.0883638334478
 20
145.5058779988972
 10
218.0885474157539
 20
145.4969504152031
 10
218.0888025236328
 20
145.4880228315092
 10
218.0891315412729
 20
145.4790964399072
 10
218.0895344686709
 20
145.4701700483062
 10
218.0900089216439
 20
145.4612424646112
 10
218.0905572843759
 20
145.4523160730091
 10
218.0911795568669
 20
145.4433884893152
 10
218.0918733549319
 20
145.4344609056212
 10
218.0926410627569
 20
145.4255321298332
 10
218.0934802961549
 20
145.4166045461392
 10
218.0943934393129
 20
145.4076757703512
 10
218.0953781080449
 20
145.3987469945642
 10
218.0964366865359
 20
145.3898194108702
 10
218.0975691747868
 20
145.3808930192681
 10
218.0987731886108
 20
145.3719654355731
 10
218.1000487280089
 20
145.3630390439722
 10
218.1013981771669
 20
145.3541114602782
 10
218.1028191518989
 20
145.3451850686762
 10
218.1043116522038
 20
145.3362574849822
 10
218.1058780622678
 20
145.3273299012872
 10
218.1075159979068
 20
145.3184023175932
 10
218.1092278433049
 20
145.3094735418052
  0
LWPOLYLINE
  5
722
330
1F
100
AcDbEntity
  8
Sichtbare_Kanten_TC_020513_DIN_
  6
Continuous
 62
     7
100
AcDbPolyline
 90
       25
 70
     0
 43
0.0
 10
219.4882194471559
 20
144.4126882825582
 10
219.4727484655579
 20
144.4259634290432
 10
219.4572774839598
 20
144.4392385755272
 10
219.4418088865479
 20
144.4525125299192
 10
219.4263426733209
 20
144.4657864843101
 10
219.4108788442809
 20
144.4790592466092
 10
219.3954173994258
 20
144.4923332010002
 10
219.3799583387569
 20
144.5056071553922
 10
219.3645016622738
 20
144.5188799176902
 10
219.3490497541619
 20
144.5321538720822
 10
219.3336002302368
 20
144.5454278264731
 10
219.3181554746818
 20
144.5587029729572
 10
219.3027178716859
 20
144.5719769273492
 10
219.2872826528738
 20
144.5852520738332
 10
219.2718545866209
 20
144.5985272203182
 10
219.2564360571099
 20
144.6118011747091
 10
219.2410222959709
 20
144.6250751291012
 10
219.2256180715758
 20
144.6383478913992
 10
219.2102209997369
 20
144.6516218457912
 10
219.1948334646419
 20
144.6648958001822
 10
219.1794530821038
 20
144.6781685624812
 10
219.1640822363098
 20
144.6914425168721
 10
219.1487209272578
 20
144.7047164712642
 10
219.1333715391348
 20
144.7179916177482
 10
219.1180293035699
 20
144.7312667642332
  0
LWPOLYLINE
  5
723
330
1F
100
AcDbEntity
  8
Sichtbare_Kanten_TC_020513_DIN_
  6
Continuous
 62
     7
100
AcDbPolyline
 90
       25
 70
     0
 43
0.0
 10
219.3031231832698
 20
144.7312667642332
 10
219.3107954931459
 20
144.7179916177482
 10
219.3184701872069
 20
144.7047164712642
 10
219.3261496496399
 20
144.6914425168721
 10
219.3338362646299
 20
144.6781685624812
 10
219.3415252638058
 20
144.6648958001822
 10
219.3492190313539
 20
144.6516218457912
 10
219.3569175672728
 20
144.6383478913992
 10
219.3646208715638
 20
144.6250751291012
 10
219.3723265600398
 20
144.6118011747091
 10
219.3800370168889
 20
144.5985272203182
 10
219.3877498579228
 20
144.5852520738332
 10
219.3954674673279
 20
144.5719769273492
 10
219.4031874609188
 20
144.5587029729572
 10
219.4109098386958
 20
144.5454278264731
 10
219.4186346006588
 20
144.5321538720822
 10
219.4263593626218
 20
144.5188799176902
 10
219.4340888929569
 20
144.5056071553922
 10
219.4418184232909
 20
144.4923332010002
 10
219.4495479536258
 20
144.4790592466092
 10
219.4572798681459
 20
144.4657864843101
 10
219.4650141668518
 20
144.4525125299192
 10
219.4727484655579
 20
144.4392385755272
 10
219.4804827642639
 20
144.4259634290432
 10
219.4882194471559
 20
144.4126882825582
  0
LWPOLYLINE
  5
724
330
1F
100
AcDbEntity
  8
Sichtbare_Kanten_TC_020513_DIN_
  6
Continuous
 62
     7
100
AcDbPolyline
 90
       25
 70
     0
 43
0.0
 10
219.1180293035699
 20
144.7312667642332
 10
219.1046158743098
 20
144.7426286016202
 10
219.0879814100458
 20
144.7562411103932
 10
219.0681569051939
 20
144.7718301091882
 10
219.0451709699829
 20
144.7891273771022
 10
219.0190569830139
 20
144.8078611169552
 10
218.9898411703308
 20
144.8277607236602
 10
218.9575545263489
 20
144.8485567842222
 10
218.9222280454828
 20
144.8699763093682
 10
218.8838903379639
 20
144.8917498861042
 10
218.8425723982049
 20
144.9136069093442
 10
218.7983028364379
 20
144.9352767739982
 10
218.7511126470758
 20
144.9564888749812
 10
218.7010328245359
 20
144.9769714151122
 10
218.6482374143799
 20
144.9964132581441
 10
218.5946266126829
 20
145.0141003404352
 10
218.5408465337948
 20
145.0298645768852
 10
218.4869853925899
 20
145.0437190805172
 10
218.4331314039429
 20
145.0556805406302
 10
218.3793703985409
 20
145.0657632623412
 10
218.3257905912599
 20
145.0739791665762
 10
218.2724778127869
 20
145.0803449426382
 10
218.2195202779968
 20
145.0848737035482
 10
218.1670062017639
 20
145.0875797544212
 10
218.1150214147758
 20
145.0884785924642
  0
LWPOLYLINE
  5
725
330
1F
100
AcDbEntity
  8
Sichtbare_Kanten_TC_020513_DIN_
  6
Continuous
 62
     7
100
AcDbPolyline
 90
       25
 70
     0
 43
0.0
 10
218.8016192388728
 20
145.0884785924642
 10
218.8290898275569
 20
145.0874629293172
 10
218.8566533994869
 20
145.0844397817342
 10
218.8842527342039
 20
145.0794484887812
 10
218.9118306112489
 20
145.0725271974302
 10
218.9393298101628
 20
145.0637152467462
 10
218.9666859579288
 20
145.0530555520742
 10
218.9936320257389
 20
145.0406911645622
 10
219.0200392675598
 20
145.0267401014062
 10
219.0458719206058
 20
145.0112846170161
 10
219.0710918379028
 20
144.9944069658012
 10
219.0956608724789
 20
144.9761917863582
 10
219.1195456457339
 20
144.9567213330952
 10
219.1426174116328
 20
144.9361601148342
 10
219.1643301916319
 20
144.9151065622062
 10
219.1846076917849
 20
144.8938551221582
 10
219.2034522962769
 20
144.8726322923392
 10
219.2208711576659
 20
144.8516669545862
 10
219.2368618917668
 20
144.8311879907342
 10
219.2514340353208
 20
144.8114218984342
 10
219.2645899725159
 20
144.7925963674282
 10
219.2763344717229
 20
144.7749402795522
 10
219.2866675329409
 20
144.7586813245512
 10
219.2955963087279
 20
144.7440471921652
 10
219.3031231832698
 20
144.7312667642332
  0
LWPOLYLINE
  5
726
330
1F
100
AcDbEntity
  8
Sichtbare_Kanten_TC_020513_DIN_
  6
Continuous
 62
     7
100
AcDbPolyline
 90
       25
 70
     0
 43
0.0
 10
217.1191589307979
 20
145.0884785924642
 10
217.0897404623229
 20
145.0890174184532
 10
217.0613185835078
 20
145.0906374726982
 10
217.0339028310979
 20
145.0933435235712
 10
217.0075027418338
 20
145.0971403394431
 10
216.9821278524598
 20
145.1020303045002
 10
216.9577900839049
 20
145.1080193792072
 10
216.9344965887268
 20
145.1151111398432
 10
216.9122592878539
 20
145.1233103547782
 10
216.8910901022159
 20
145.1326206002921
 10
216.8710057211118
 20
145.1430418763852
 10
216.8524186086859
 20
145.1543238435482
 10
216.8354694318969
 20
145.1662376199452
 10
216.8200723600588
 20
145.1786473069882
 10
216.8061510992249
 20
145.1914193902702
 10
216.7936245870789
 20
145.2044191632962
 10
216.7824093771178
 20
145.2175119195672
 10
216.7724267912108
 20
145.2305641446802
 10
216.7635933828559
 20
145.2434399400442
 10
216.7558304739199
 20
145.2560057912561
 10
216.7490570020879
 20
145.2681257997242
 10
216.7431919050418
 20
145.2796676431392
 10
216.7381541204649
 20
145.2904954229092
 10
216.7338625860418
 20
145.3004756246302
 10
216.7302362394538
 20
145.3094735418052
  0
LWPOLYLINE
  5
727
330
1F
100
AcDbEntity
  8
Sichtbare_Kanten_TC_020513_DIN_
  6
Continuous
 62
     7
100
AcDbPolyline
 90
       25
 70
     0
 43
0.0
 10
218.1092278433049
 20
145.3094735418052
 10
218.1110541296208
 20
145.3003897939412
 10
218.1131903600899
 20
145.2904107843132
 10
218.1156794500548
 20
145.2796557222102
 10
218.1185571623049
 20
145.2682485852932
 10
218.1218711805549
 20
145.2563097749442
 10
218.1256572675909
 20
145.2439608846402
 10
218.1299559545719
 20
145.2313246999472
 10
218.1348101568428
 20
145.2185216222502
 10
218.1402604055609
 20
145.2056744371152
 10
218.1463472318849
 20
145.1929047380181
 10
218.1531087827889
 20
145.1803341184352
 10
218.1605903578009
 20
145.1680841718411
 10
218.1688277197088
 20
145.1562764917112
 10
218.1778637838559
 20
145.1450338636132
 10
218.1876699400149
 20
145.1345494065972
 10
218.1981007528509
 20
145.1250722680782
 10
218.2091538381778
 20
145.1166334424702
 10
218.2208387327398
 20
145.1092531953541
 10
218.2331673574648
 20
145.1029529844022
 10
218.2461206388679
 20
145.0977626119352
 10
218.2596580457889
 20
145.0937118802762
 10
218.2737700414858
 20
145.0908091340752
 10
218.2884470892149
 20
145.0890627179832
 10
218.3036891889768
 20
145.0884785924642
  0
SOLID
  5
728
330
1F
100
AcDbEntity
  8
1
 62
     2
100
AcDbTrace
 10
216.3606203995158
 20
69.17662760433069
 30
0.0
 11
215.7558668326999
 21
69.68479963010488
 31
0.0
 12
217.9882184934809
 22
71.72749331338127
 32
0.0
 13
217.9882184934809
 23
71.72749331338127
 33
0.0
  0
LEADER
  5
729
330
1F
100
AcDbEntity
  8
1
  6
Continuous
 62
     2
100
AcDbLeader
  3
Standard
 71
     0
 76
     3
 10
217.9882184934809
 20
71.72749331338127
 30
0.0
 10
199.185261611742
 20
49.3509069131494
 30
0.0
 10
188.700545796363
 20
49.3346459356044
 30
0.0
  0
MTEXT
  5
72A
330
1F
100
AcDbEntity
  8
1
 62
     7
100
AcDbMText
 10
256.6763006887431
 20
10.0606394207561
 30
0.0
 40
4.5
 41
0.0
 71
     5
 72
     1
  1
1:1
  7
CONVERTER_11
 73
     1
 44
0.75727272727273
  0
MTEXT
  5
72B
330
1F
100
AcDbEntity
  8
1
 62
     7
100
AcDbMText
 10
119.6
 20
7.49999999999987
 30
0.0
 40
3.0
 41
0.0
 71
     4
 72
     1
  1
Pezzimenti
  7
CONVERTER_11
 73
     1
 44
0.75727272727273
  0
MTEXT
  5
72C
330
1F
100
AcDbEntity
  8
1
 62
     7
100
AcDbMText
 10
119.6
 20
12.4999999999999
 30
0.0
 40
3.0
 41
0.0
 71
     4
 72
     1
  1
08/08/14
  7
CONVERTER_11
 73
     1
 44
0.75727272727273
  0
MTEXT
  5
72D
330
1F
100
AcDbEntity
  8
1
 62
     7
100
AcDbMText
 10
144.276300688743
 20
12.5
 30
0.0
 40
4.5
 41
0.0
 71
     4
 72
     1
  1
C7P 16 \PSurface mounting housing, 2 levers. PG21.
  7
CONVERTER_11
 73
     1
 44
0.75727272727273
  0
MTEXT
  5
72F
330
1F
100
AcDbEntity
  8
1
 62
     4
100
AcDbMText
 10
188.700545796363
 20
50.8035050153698
 30
0.0
 40
3.5
 41
0.0
 71
     7
 72
     1
  1
\U+00f85,5
  7
CONVERTER_13
 73
     1
 44
1.32052821128451
  0
DIMENSION
  5
73A
330
1F
100
AcDbEntity
  8
1
100
AcDbDimension
  2
*D2
 10
21.77085918161987
 20
169.642369446126
 30
0.0
 11
91.70480915333636
 21
173.142369446126
 31
0.0
 70
    32
  1
140
 71
     5
 42
-1.0
 53
0.00013888888889
  3
ME10_DIM_10
100
AcDbAlignedDimension
 13
161.6387591250528
 23
116.7274933133812
 33
0.0
 14
21.77085918161987
 24
116.7274933133812
 34
0.0
100
AcDbRotatedDimension
  0
DIMENSION
  5
745
330
1F
100
AcDbEntity
  8
1
100
AcDbDimension
  2
*D3
 10
39.20480915333684
 20
54.15443170726125
 30
0.0
 11
91.70480915333684
 21
57.65443170726125
 31
0.0
 70
    32
  1
<>
 71
     5
 42
-1.0
 53
0.00013888888889
  3
ME10_DIM_11
100
AcDbAlignedDimension
 13
144.2048091533368
 23
69.22749331338127
 33
0.0
 14
39.20480915333684
 24
69.22749331338127
 34
0.0
100
AcDbRotatedDimension
  0
DIMENSION
  5
750
330
1F
100
AcDbEntity
  8
1
100
AcDbDimension
  2
*D4
 10
33.20480915333684
 20
41.7729977944406
 30
0.0
 11
91.70480915333684
 21
45.2729977944406
 31
0.0
 70
    32
  1
<>
 71
     5
 42
-1.0
 53
0.00013888888889
  3
ME10_DIM_12
100
AcDbAlignedDimension
 13
150.2048091533368
 23
71.72749331338127
 33
0.0
 14
33.20480915333684
 24
71.72749331338127
 34
0.0
100
AcDbRotatedDimension
  0
DIMENSION
  5
75B
330
1F
100
AcDbEntity
  8
1
100
AcDbDimension
  2
*D5
 10
211.9882184934788
 20
41.4745712976962
 30
0.0
 11
240.4882184934788
 21
44.9745712976962
 31
0.0
 70
    32
  1
<>
 71
     5
 42
-1.0
 53
0.00013888888889
  3
ME10_DIM_13
100
AcDbAlignedDimension
 13
268.9882184934788
 23
71.72749331338127
 33
0.0
 14
211.9882184934788
 24
71.72749331338127
 34
0.0
100
AcDbRotatedDimension
  0
DIMENSION
  5
766
330
1F
100
AcDbEntity
  8
1
100
AcDbDimension
  2
*D6
 10
217.9882184934809
 20
54.5041998963537
 30
0.0
 11
240.4882184934809
 21
58.0041998963537
 31
0.0
 70
    32
  1
<>
 71
     5
 42
-1.0
 53
0.00013888888889
  3
ME10_DIM_14
100
AcDbAlignedDimension
 13
262.9882184934809
 23
69.22749331338127
 33
0.0
 14
217.9882184934809
 24
69.22749331338127
 34
0.0
100
AcDbRotatedDimension
  0
DIMENSION
  5
771
330
1F
100
AcDbEntity
  8
1
100
AcDbDimension
  2
*D7
 10
279.69069852012
 20
134.7274933133811
 30
0.0
 11
276.19069852012
 21
103.2274933133812
 31
0.0
 70
    32
  1
<>
 71
     5
 42
-1.0
 53
90.0
  3
ME10_DIM_15
100
AcDbAlignedDimension
 13
211.9882184934788
 23
71.72749331338127
 33
0.0
 14
218.4382184934849
 24
134.7274933133812
 34
0.0
 50
90.0
100
AcDbRotatedDimension
  0
DIMENSION
  5
77C
330
1F
100
AcDbEntity
  8
1
100
AcDbDimension
  2
*D8
 10
268.9882184934899
 20
164.484413589024
 30
0.0
 11
240.4882184934893
 21
167.984413589024
 31
0.0
 70
    32
  1
58
 71
     5
 42
-1.0
 53
0.00013888888889
  3
ME10_DIM_16
100
AcDbAlignedDimension
 13
211.9882184934888
 23
131.7274933133812
 33
0.0
 14
268.9882184934899
 24
131.7274933133812
 34
0.0
100
AcDbRotatedDimension
  0
DIMENSION
  5
787
330
1F
100
AcDbEntity
  8
1
100
AcDbDimension
  2
*D9
 10
171.541352584074
 20
105.6694933133812
 30
0.0
 11
168.041352584074
 21
91.11749331338122
 31
0.0
 70
    32
  1
PG21
 71
     5
 42
-1.0
 53
90.0
  3
ME10_DIM_17
100
AcDbAlignedDimension
 13
150.2048091533368
 23
76.56549331338127
 33
0.0
 14
150.3048091533368
 24
105.6694933133812
 34
0.0
 50
90.0
100
AcDbRotatedDimension
  0
DIMENSION
  5
794
330
1F
100
AcDbEntity
  8
1
100
AcDbDimension
  2
*D10
 10
197.543281845478
 20
71.72749331338127
 30
0.0
 11
194.043281845478
 21
73.72749331338127
 31
0.0
 70
    32
  1
<>
 71
     5
 42
-1.0
 53
90.0
  3
ME10_DIM_18
100
AcDbAlignedDimension
 13
211.9882184934788
 23
75.72749331338127
 33
0.0
 14
211.9882184934788
 24
71.72749331338127
 34
0.0
 50
90.0
100
AcDbRotatedDimension
  0
ENDSEC
  0
SECTION
  2
OBJECTS
  0
DICTIONARY
  5
C
330
0
100
AcDbDictionary
281
     1
  3
ACAD_GROUP
350
D
  3
ACAD_LAYOUT
350
1A
  3
ACAD_MATERIAL
350
3B
  3
ACAD_MLEADERSTYLE
350
797
  3
ACAD_MLINESTYLE
350
17
  3
ACAD_PLOTSETTINGS
350
19
  3
ACAD_PLOTSTYLENAME
350
E
  3
ACAD_VISUALSTYLE
350
2A
  3
AcDbVariableDictionary
350
795
  0
DICTIONARY
  5
D
102
{ACAD_REACTORS
330
C
102
}
330
C
100
AcDbDictionary
281
     1
  0
DICTIONARY
  5
1A
102
{ACAD_REACTORS
330
C
102
}
330
C
100
AcDbDictionary
281
     1
  3
Layout1
350
1E
  3
Layout2
350
26
  3
Model
350
22
  0
DICTIONARY
  5
3B
102
{ACAD_REACTORS
330
C
102
}
330
C
100
AcDbDictionary
281
     1
  3
ByBlock
350
3D
  3
ByLayer
350
3C
  3
Global
350
3E
  0
DICTIONARY
  5
797
102
{ACAD_REACTORS
330
C
102
}
330
C
100
AcDbDictionary
281
     1
  0
DICTIONARY
  5
17
102
{ACAD_REACTORS
330
C
102
}
330
C
100
AcDbDictionary
281
     1
  3
Standard
350
18
  0
DICTIONARY
  5
19
102
{ACAD_REACTORS
330
C
102
}
330
C
100
AcDbDictionary
281
     1
  0
ACDBDICTIONARYWDFLT
  5
E
102
{ACAD_REACTORS
330
C
102
}
330
C
100
AcDbDictionary
281
     1
  3
Normal
350
F
100
AcDbDictionaryWithDefault
340
F
  0
DICTIONARY
  5
2A
102
{ACAD_REACTORS
330
C
102
}
330
C
100
AcDbDictionary
281
     1
  3
2dWireframe
350
2F
  3
3D Hidden
350
31
  3
3dWireframe
350
30
  3
Basic
350
32
  3
Brighten
350
36
  3
ColorChange
350
3A
  3
Conceptual
350
34
  3
Dim
350
35
  3
Facepattern
350
39
  3
Flat
350
2B
  3
FlatWithEdges
350
2C
  3
Gouraud
350
2D
  3
GouraudWithEdges
350
2E
  3
Linepattern
350
38
  3
Realistic
350
33
  3
Thicken
350
37
  0
DICTIONARY
  5
795
102
{ACAD_REACTORS
330
C
102
}
330
C
100
AcDbDictionary
281
     1
  3
DIMASSOC
350
798
  3
HIDETEXT
350
799
  0
LAYOUT
  5
1E
102
{ACAD_REACTORS
330
1A
102
}
330
1A
100
AcDbPlotSettings
  1

  2
none_device
  4

  6

 40
0.0
 41
0.0
 42
0.0
 43
0.0
 44
0.0
 45
0.0
 46
0.0
 47
0.0
 48
0.0
 49
0.0
140
0.0
141
0.0
142
1.0
143
1.0
 70
   688
 72
     0
 73
     0
 74
     5
  7

 75
    16
147
1.0
148
0.0
149
0.0
100
AcDbLayout
  1
Layout1
 70
     1
 71
     1
 10
0.0
 20
0.0
 11
12.0
 21
9.0
 12
0.0
 22
0.0
 32
0.0
 14
1.00000000000000E+20
 24
1.00000000000000E+20
 34
1.00000000000000E+20
 15
-1.00000000000000E+20
 25
-1.00000000000000E+20
 35
-1.00000000000000E+20
146
0.0
 13
0.0
 23
0.0
 33
0.0
 16
1.0
 26
0.0
 36
0.0
 17
0.0
 27
1.0
 37
0.0
 76
     0
330
1B
  0
LAYOUT
  5
26
102
{ACAD_REACTORS
330
1A
102
}
330
1A
100
AcDbPlotSettings
  1

  2
none_device
  4

  6

 40
0.0
 41
0.0
 42
0.0
 43
0.0
 44
0.0
 45
0.0
 46
0.0
 47
0.0
 48
0.0
 49
0.0
140
0.0
141
0.0
142
1.0
143
1.0
 70
   688
 72
     0
 73
     0
 74
     5
  7

 75
    16
147
1.0
148
0.0
149
0.0
100
AcDbLayout
  1
Layout2
 70
     1
 71
     2
 10
0.0
 20
0.0
 11
0.0
 21
0.0
 12
0.0
 22
0.0
 32
0.0
 14
0.0
 24
0.0
 34
0.0
 15
0.0
 25
0.0
 35
0.0
146
0.0
 13
0.0
 23
0.0
 33
0.0
 16
1.0
 26
0.0
 36
0.0
 17
0.0
 27
1.0
 37
0.0
 76
     0
330
23
  0
LAYOUT
  5
22
102
{ACAD_REACTORS
330
1A
102
}
330
1A
100
AcDbPlotSettings
  1

  2
none_device
  4

  6

 40
0.0
 41
0.0
 42
0.0
 43
0.0
 44
0.0
 45
0.0
 46
0.0
 47
0.0
 48
0.0
 49
0.0
140
0.0
141
0.0
142
1.0
143
1.0
 70
  1712
 72
     0
 73
     0
 74
     0
  7

 75
     0
147
1.0
148
0.0
149
0.0
100
AcDbLayout
  1
Model
 70
     1
 71
     0
 10
0.0
 20
0.0
 11
12.0
 21
9.0
 12
0.0
 22
0.0
 32
0.0
 14
0.0
 24
0.0
 34
0.0
 15
296.9999999999999
 25
210.0
 35
0.0
146
0.0
 13
0.0
 23
0.0
 33
0.0
 16
1.0
 26
0.0
 36
0.0
 17
0.0
 27
1.0
 37
0.0
 76
     0
330
1F
331
29
  0
MATERIAL
  5
3D
102
{ACAD_REACTORS
330
3B
102
}
102
{ACAD_XDICTIONARY
360
7BC
102
}
330
3B
100
AcDbMaterial
  1
ByBlock
  0
MATERIAL
  5
3C
102
{ACAD_REACTORS
330
3B
102
}
102
{ACAD_XDICTIONARY
360
7BA
102
}
330
3B
100
AcDbMaterial
  1
ByLayer
  0
MATERIAL
  5
3E
102
{ACAD_REACTORS
330
3B
102
}
102
{ACAD_XDICTIONARY
360
7BE
102
}
330
3B
100
AcDbMaterial
  1
Global
  0
MLINESTYLE
  5
18
102
{ACAD_REACTORS
330
17
102
}
330
17
100
AcDbMlineStyle
  2
Standard
 70
     0
  3

 62
   256
 51
90.0
 52
90.0
 71
     2
 49
0.5
 62
   256
  6
BYLAYER
 49
-0.5
 62
   256
  6
BYLAYER
  0
ACDBPLACEHOLDER
  5
F
102
{ACAD_REACTORS
330
E
102
}
330
E
  0
VISUALSTYLE
  5
2F
102
{ACAD_REACTORS
330
2A
102
}
102
{ACAD_XDICTIONARY
360
7A2
102
}
330
2A
100
AcDbVisualStyle
  2
2dWireframe
 70
     4
 71
     0
 72
     2
 73
     0
 90
        0
 40
-0.6
 41
-30.0
 62
     5
 63
     7
 74
     1
 91
        4
 64
     7
 65
   257
 75
     1
175
     1
 42
1.0
 92
        0
 66
   257
 43
1.0
 76
     1
 77
     6
 78
     2
 67
     7
 79
     5
170
     0
171
     0
290
     0
174
     0
 93
        1
 44
0.0
173
     0
291
     0
 45
0.0
1001
ACAD
1000
AcDbSavedByObjectVersion
1070
     0
  0
VISUALSTYLE
  5
31
102
{ACAD_REACTORS
330
2A
102
}
102
{ACAD_XDICTIONARY
360
7A6
102
}
330
2A
100
AcDbVisualStyle
  2
3D Hidden
 70
     6
 71
     1
 72
     2
 73
     2
 90
        0
 40
-0.6
 41
-30.0
 62
     5
 63
     7
 74
     2
 91
        2
 64
     7
 65
   257
 75
     2
175
     1
 42
40.0
 92
        0
 66
   257
 43
1.0
 76
     1
 77
     6
 78
     2
 67
     7
 79
     3
170
     0
171
     0
290
     0
174
     0
 93
        1
 44
0.0
173
     0
291
     0
 45
0.0
1001
ACAD
1000
AcDbSavedByObjectVersion
1070
     0
  0
VISUALSTYLE
  5
30
102
{ACAD_REACTORS
330
2A
102
}
102
{ACAD_XDICTIONARY
360
7A4
102
}
330
2A
100
AcDbVisualStyle
  2
3dWireframe
 70
     5
 71
     0
 72
     2
 73
     0
 90
        0
 40
-0.6
 41
-30.0
 62
     5
 63
     7
 74
     1
 91
        4
 64
     7
 65
   257
 75
     1
175
     1
 42
1.0
 92
        0
 66
   257
 43
1.0
 76
     1
 77
     6
 78
     2
 67
     7
 79
     5
170
     0
171
     0
290
     0
174
     0
 93
        1
 44
0.0
173
     0
291
     0
 45
0.0
1001
ACAD
1000
AcDbSavedByObjectVersion
1070
     0
  0
VISUALSTYLE
  5
32
102
{ACAD_REACTORS
330
2A
102
}
102
{ACAD_XDICTIONARY
360
7A8
102
}
330
2A
100
AcDbVisualStyle
  2
Basic
 70
     7
 71
     1
 72
     0
 73
     1
 90
        0
 40
-0.6
 41
-30.0
 62
     5
 63
     7
 74
     0
 91
        4
 64
     7
 65
   257
 75
     1
175
     1
 42
1.0
 92
        8
 66
     7
 43
1.0
 76
     1
 77
     6
 78
     2
 67
     7
 79
     5
170
     0
171
     0
290
     0
174
     0
 93
        1
 44
0.0
173
     0
291
     1
 45
0.0
1001
ACAD
1000
AcDbSavedByObjectVersion
1070
     0
  0
VISUALSTYLE
  5
36
102
{ACAD_REACTORS
330
2A
102
}
102
{ACAD_XDICTIONARY
360
7B0
102
}
330
2A
100
AcDbVisualStyle
  2
Brighten
 70
    12
 71
     2
 72
     2
 73
     0
 90
        0
 40
-0.6
 41
-30.0
 62
     5
 63
     7
 74
     1
 91
        4
 64
     7
 65
   257
 75
     1
175
     1
 42
1.0
 92
        8
 66
     7
 43
1.0
 76
     1
 77
     6
 78
     2
 67
     7
 79
     5
170
     0
171
     0
290
     0
174
     0
 93
        1
 44
50.0
173
     0
291
     1
 45
0.0
1001
ACAD
1000
AcDbSavedByObjectVersion
1070
     0
  0
VISUALSTYLE
  5
3A
102
{ACAD_REACTORS
330
2A
102
}
102
{ACAD_XDICTIONARY
360
7B8
102
}
330
2A
100
AcDbVisualStyle
  2
ColorChange
 70
    16
 71
     2
 72
     2
 73
     3
 90
        0
 40
-0.6
 41
-30.0
 62
     5
 63
     8
 74
     1
 91
        4
 64
     7
 65
   257
 75
     1
175
     1
 42
1.0
 92
        8
 66
     8
 43
1.0
 76
     1
 77
     6
 78
     2
 67
     7
 79
     5
170
     0
171
     0
290
     0
174
     0
 93
        1
 44
0.0
173
     0
291
     1
 45
0.0
1001
ACAD
1000
AcDbSavedByObjectVersion
1070
     0
  0
VISUALSTYLE
  5
34
102
{ACAD_REACTORS
330
2A
102
}
102
{ACAD_XDICTIONARY
360
7AC
102
}
330
2A
100
AcDbVisualStyle
  2
Conceptual
 70
     9
 71
     3
 72
     2
 73
     0
 90
        0
 40
-0.6
 41
-30.0
 62
     5
 63
     7
 74
     2
 91
        2
 64
     7
 65
   257
 75
     1
175
     1
 42
40.0
 92
        8
 66
     7
 43
1.0
 76
     1
 77
     6
 78
     2
 67
     7
 79
     3
170
     0
171
     0
290
     0
174
     0
 93
        1
 44
0.0
173
     0
291
     0
 45
0.0
1001
ACAD
1000
AcDbSavedByObjectVersion
1070
     0
  0
VISUALSTYLE
  5
35
102
{ACAD_REACTORS
330
2A
102
}
102
{ACAD_XDICTIONARY
360
7AE
102
}
330
2A
100
AcDbVisualStyle
  2
Dim
 70
    11
 71
     2
 72
     2
 73
     0
 90
        0
 40
-0.6
 41
-30.0
 62
     5
 63
     7
 74
     1
 91
        4
 64
     7
 65
   257
 75
     1
175
     1
 42
1.0
 92
        8
 66
     7
 43
1.0
 76
     1
 77
     6
 78
     2
 67
     7
 79
     5
170
     0
171
     0
290
     0
174
     0
 93
        1
 44
-50.0
173
     0
291
     1
 45
0.0
1001
ACAD
1000
AcDbSavedByObjectVersion
1070
     0
  0
VISUALSTYLE
  5
39
102
{ACAD_REACTORS
330
2A
102
}
102
{ACAD_XDICTIONARY
360
7B6
102
}
330
2A
100
AcDbVisualStyle
  2
Facepattern
 70
    15
 71
     2
 72
     2
 73
     0
 90
        0
 40
-0.6
 41
-30.0
 62
     5
 63
     7
 74
     1
 91
        4
 64
     7
 65
   257
 75
     1
175
     1
 42
1.0
 92
        8
 66
     7
 43
1.0
 76
     1
 77
     6
 78
     2
 67
     7
 79
     5
170
     0
171
     0
290
     0
174
     0
 93
        1
 44
0.0
173
     0
291
     1
 45
0.0
1001
ACAD
1000
AcDbSavedByObjectVersion
1070
     0
  0
VISUALSTYLE
  5
2B
102
{ACAD_REACTORS
330
2A
102
}
102
{ACAD_XDICTIONARY
360
79A
102
}
330
2A
100
AcDbVisualStyle
  2
Flat
 70
     0
 71
     2
 72
     1
 73
     1
 90
        2
 40
-0.6
 41
30.0
 62
     5
 63
     7
 74
     0
 91
        4
 64
     7
 65
   257
 75
     1
175
     1
 42
1.0
 92
        8
 66
     7
 43
1.0
 76
     1
 77
     6
 78
     2
 67
     7
 79
     5
170
     0
171
     0
290
     0
174
     0
 93
       13
 44
0.0
173
     0
291
     1
 45
0.0
1001
ACAD
1000
AcDbSavedByObjectVersion
1070
     0
  0
VISUALSTYLE
  5
2C
102
{ACAD_REACTORS
330
2A
102
}
102
{ACAD_XDICTIONARY
360
79C
102
}
330
2A
100
AcDbVisualStyle
  2
FlatWithEdges
 70
     1
 71
     2
 72
     1
 73
     1
 90
        2
 40
-0.6
 41
30.0
 62
     5
 63
     7
 74
     1
 91
        4
 64
     7
 65
   257
 75
     1
175
     1
 42
1.0
 92
        0
 66
   257
 43
1.0
 76
     1
 77
     6
 78
     2
 67
     7
 79
     5
170
     0
171
     0
290
     0
174
     0
 93
       13
 44
0.0
173
     0
291
     1
 45
0.0
1001
ACAD
1000
AcDbSavedByObjectVersion
1070
     0
  0
VISUALSTYLE
  5
2D
102
{ACAD_REACTORS
330
2A
102
}
102
{ACAD_XDICTIONARY
360
79E
102
}
330
2A
100
AcDbVisualStyle
  2
Gouraud
 70
     2
 71
     2
 72
     2
 73
     1
 90
        2
 40
-0.6
 41
30.0
 62
     5
 63
     7
 74
     0
 91
        4
 64
     7
 65
   257
 75
     1
175
     1
 42
1.0
 92
        0
 66
     7
 43
1.0
 76
     1
 77
     6
 78
     2
 67
     7
 79
     5
170
     0
171
     0
290
     0
174
     0
 93
       13
 44
0.0
173
     0
291
     1
 45
0.0
1001
ACAD
1000
AcDbSavedByObjectVersion
1070
     0
  0
VISUALSTYLE
  5
2E
102
{ACAD_REACTORS
330
2A
102
}
102
{ACAD_XDICTIONARY
360
7A0
102
}
330
2A
100
AcDbVisualStyle
  2
GouraudWithEdges
 70
     3
 71
     2
 72
     2
 73
     1
 90
        2
 40
-0.6
 41
30.0
 62
     5
 63
     7
 74
     1
 91
        4
 64
     7
 65
   257
 75
     1
175
     1
 42
1.0
 92
        0
 66
   257
 43
1.0
 76
     1
 77
     6
 78
     2
 67
     7
 79
     5
170
     0
171
     0
290
     0
174
     0
 93
       13
 44
0.0
173
     0
291
     1
 45
0.0
1001
ACAD
1000
AcDbSavedByObjectVersion
1070
     0
  0
VISUALSTYLE
  5
38
102
{ACAD_REACTORS
330
2A
102
}
102
{ACAD_XDICTIONARY
360
7B4
102
}
330
2A
100
AcDbVisualStyle
  2
Linepattern
 70
    14
 71
     2
 72
     2
 73
     0
 90
        0
 40
-0.6
 41
-30.0
 62
     5
 63
     7
 74
     1
 91
        4
 64
     7
 65
   257
 75
     7
175
     7
 42
1.0
 92
        8
 66
     7
 43
1.0
 76
     1
 77
     6
 78
     2
 67
     7
 79
     5
170
     0
171
     0
290
     0
174
     0
 93
        1
 44
0.0
173
     0
291
     1
 45
0.0
1001
ACAD
1000
AcDbSavedByObjectVersion
1070
     0
  0
VISUALSTYLE
  5
33
102
{ACAD_REACTORS
330
2A
102
}
102
{ACAD_XDICTIONARY
360
7AA
102
}
330
2A
100
AcDbVisualStyle
  2
Realistic
 70
     8
 71
     2
 72
     2
 73
     0
 90
        0
 40
-0.6
 41
-30.0
 62
     5
 63
     7
 74
     1
 91
        0
 64
     7
 65
   257
 75
     1
175
     1
 42
1.0
 92
        8
 66
     8
 43
1.0
 76
     1
 77
     6
 78
     2
 67
     7
 79
     5
170
     0
171
     0
290
     0
174
     0
 93
       13
 44
0.0
173
     0
291
     0
 45
0.0
1001
ACAD
1000
AcDbSavedByObjectVersion
1070
     0
  0
VISUALSTYLE
  5
37
102
{ACAD_REACTORS
330
2A
102
}
102
{ACAD_XDICTIONARY
360
7B2
102
}
330
2A
100
AcDbVisualStyle
  2
Thicken
 70
    13
 71
     2
 72
     2
 73
     0
 90
        0
 40
-0.6
 41
-30.0
 62
     5
 63
     7
 74
     1
 91
        4
 64
     7
 65
   257
 75
     1
175
     1
 42
1.0
 92
       12
 66
     7
 43
1.0
 76
     1
 77
     6
 78
     2
 67
     7
 79
     5
170
     0
171
     0
290
     0
174
     0
 93
        1
 44
0.0
173
     0
291
     1
 45
0.0
1001
ACAD
1000
AcDbSavedByObjectVersion
1070
     0
  0
DICTIONARYVAR
  5
798
102
{ACAD_REACTORS
330
795
102
}
330
795
100
DictionaryVariables
280
     0
  1
2
  0
DICTIONARYVAR
  5
799
102
{ACAD_REACTORS
330
795
102
}
330
795
100
DictionaryVariables
280
     0
  1
1
  0
DICTIONARY
  5
7BC
330
3D
100
AcDbDictionary
280
     1
281
     1
  3
ACAD_XREC_ROUNDTRIP
360
7BD
  0
DICTIONARY
  5
7BA
330
3C
100
AcDbDictionary
280
     1
281
     1
  3
ACAD_XREC_ROUNDTRIP
360
7BB
  0
DICTIONARY
  5
7BE
330
3E
100
AcDbDictionary
280
     1
281
     1
  3
ACAD_XREC_ROUNDTRIP
360
7BF
  0
DICTIONARY
  5
7A2
330
2F
100
AcDbDictionary
280
     1
281
     1
  3
ACAD_XREC_ROUNDTRIP
360
7A3
  0
DICTIONARY
  5
7A6
330
31
100
AcDbDictionary
280
     1
281
     1
  3
ACAD_XREC_ROUNDTRIP
360
7A7
  0
DICTIONARY
  5
7A4
330
30
100
AcDbDictionary
280
     1
281
     1
  3
ACAD_XREC_ROUNDTRIP
360
7A5
  0
DICTIONARY
  5
7A8
330
32
100
AcDbDictionary
280
     1
281
     1
  3
ACAD_XREC_ROUNDTRIP
360
7A9
  0
DICTIONARY
  5
7B0
330
36
100
AcDbDictionary
280
     1
281
     1
  3
ACAD_XREC_ROUNDTRIP
360
7B1
  0
DICTIONARY
  5
7B8
330
3A
100
AcDbDictionary
280
     1
281
     1
  3
ACAD_XREC_ROUNDTRIP
360
7B9
  0
DICTIONARY
  5
7AC
330
34
100
AcDbDictionary
280
     1
281
     1
  3
ACAD_XREC_ROUNDTRIP
360
7AD
  0
DICTIONARY
  5
7AE
330
35
100
AcDbDictionary
280
     1
281
     1
  3
ACAD_XREC_ROUNDTRIP
360
7AF
  0
DICTIONARY
  5
7B6
330
39
100
AcDbDictionary
280
     1
281
     1
  3
ACAD_XREC_ROUNDTRIP
360
7B7
  0
DICTIONARY
  5
79A
330
2B
100
AcDbDictionary
280
     1
281
     1
  3
ACAD_XREC_ROUNDTRIP
360
79B
  0
DICTIONARY
  5
79C
330
2C
100
AcDbDictionary
280
     1
281
     1
  3
ACAD_XREC_ROUNDTRIP
360
79D
  0
DICTIONARY
  5
79E
330
2D
100
AcDbDictionary
280
     1
281
     1
  3
ACAD_XREC_ROUNDTRIP
360
79F
  0
DICTIONARY
  5
7A0
330
2E
100
AcDbDictionary
280
     1
281
     1
  3
ACAD_XREC_ROUNDTRIP
360
7A1
  0
DICTIONARY
  5
7B4
330
38
100
AcDbDictionary
280
     1
281
     1
  3
ACAD_XREC_ROUNDTRIP
360
7B5
  0
DICTIONARY
  5
7AA
330
33
100
AcDbDictionary
280
     1
281
     1
  3
ACAD_XREC_ROUNDTRIP
360
7AB
  0
DICTIONARY
  5
7B2
330
37
100
AcDbDictionary
280
     1
281
     1
  3
ACAD_XREC_ROUNDTRIP
360
7B3
  0
XRECORD
  5
7BD
102
{ACAD_REACTORS
330
7BC
102
}
330
7BC
100
AcDbXrecord
280
     1
102
MATERIAL
148
0.0
149
0.0
149
0.0
 93
        0
 94
      127
282
     0
 72
     1
 77
     1
171
     1
175
     1
179
     1
273
     0
  0
XRECORD
  5
7BB
102
{ACAD_REACTORS
330
7BA
102
}
330
7BA
100
AcDbXrecord
280
     1
102
MATERIAL
148
0.0
149
0.0
149
0.0
 93
        0
 94
      127
282
     0
 72
     1
 77
     1
171
     1
175
     1
179
     1
273
     0
  0
XRECORD
  5
7BF
102
{ACAD_REACTORS
330
7BE
102
}
330
7BE
100
AcDbXrecord
280
     1
102
MATERIAL
148
0.0
149
0.0
149
0.0
 93
        0
 94
      127
282
     0
 72
     1
 77
     1
171
     1
175
     1
179
     1
273
     0
  0
XRECORD
  5
7A3
102
{ACAD_REACTORS
330
7A2
102
}
330
7A2
100
AcDbXrecord
280
     1
102
RTVSPropertyOp0
 70
     1
102
RTVSPropertyOp1
 70
     1
102
RTVSPropertyOp2
 70
     1
102
RTVSPropertyOp3
 70
     1
102
RTVSPropertyOp4
 70
     1
102
RTVSPropertyOp5
 70
     1
102
RTVSPropertyOp6
 70
     1
102
RTVSPropertyOp7
 70
     1
102
RTVSPropertyOp8
 70
     1
102
RTVSPropertyOp9
 70
     1
102
RTVSPropertyOp10
 70
     1
102
RTVSPropertyOp11
 70
     1
102
RTVSPropertyOp12
 70
     1
102
RTVSPropertyOp13
 70
     1
102
RTVSPropertyOp14
 70
     1
102
RTVSPropertyOp15
 70
     1
102
RTVSPropertyOp16
 70
     1
102
RTVSPropertyOp17
 70
     1
102
RTVSPropertyOp18
 70
     1
102
RTVSPropertyOp19
 70
     1
102
RTVSPropertyOp20
 70
     1
102
RTVSPropertyOp21
 70
     1
102
RTVSPropertyOp22
 70
     1
102
RTVSPropertyOp23
 70
     1
102
RTVSPropertyOp24
 70
     1
102
RTVSPropertyOp25
 70
     1
102
RTVSPropertyOp26
 70
     1
102
RTVSPropertyOp27
 70
     1
102
RTVSPropertyOp28
 70
     1
102
RTVSPropertyOp29
 70
     1
102
RTVSPropertyOp30
 70
     1
102
RTVSPropertyOp31
 70
     1
102
RTVSPropertyOp32
 70
     1
  0
XRECORD
  5
7A7
102
{ACAD_REACTORS
330
7A6
102
}
330
7A6
100
AcDbXrecord
280
     1
102
RTVSPropertyOp0
 70
     1
102
RTVSPropertyOp1
 70
     1
102
RTVSPropertyOp2
 70
     1
102
RTVSPropertyOp3
 70
     1
102
RTVSPropertyOp4
 70
     1
102
RTVSPropertyOp5
 70
     1
102
RTVSPropertyOp6
 70
     1
102
RTVSPropertyOp7
 70
     1
102
RTVSPropertyOp8
 70
     1
102
RTVSPropertyOp9
 70
     1
102
RTVSPropertyOp10
 70
     1
102
RTVSPropertyOp11
 70
     1
102
RTVSPropertyOp12
 70
     1
102
RTVSPropertyOp13
 70
     1
102
RTVSPropertyOp14
 70
     1
102
RTVSPropertyOp15
 70
     1
102
RTVSPropertyOp16
 70
     1
102
RTVSPropertyOp17
 70
     1
102
RTVSPropertyOp18
 70
     1
102
RTVSPropertyOp19
 70
     1
102
RTVSPropertyOp20
 70
     1
102
RTVSPropertyOp21
 70
     1
102
RTVSPropertyOp22
 70
     1
102
RTVSPropertyOp23
 70
     1
102
RTVSPropertyOp24
 70
     1
102
RTVSPropertyOp25
 70
     1
102
RTVSPropertyOp26
 70
     1
102
RTVSPropertyOp27
 70
     1
102
RTVSPropertyOp28
 70
     1
102
RTVSPropertyOp29
 70
     1
102
RTVSPropertyOp30
 70
     1
102
RTVSPropertyOp31
 70
     1
102
RTVSPropertyOp32
 70
     1
  0
XRECORD
  5
7A5
102
{ACAD_REACTORS
330
7A4
102
}
330
7A4
100
AcDbXrecord
280
     1
102
RTVSPropertyOp0
 70
     1
102
RTVSPropertyOp1
 70
     1
102
RTVSPropertyOp2
 70
     1
102
RTVSPropertyOp3
 70
     1
102
RTVSPropertyOp4
 70
     1
102
RTVSPropertyOp5
 70
     1
102
RTVSPropertyOp6
 70
     1
102
RTVSPropertyOp7
 70
     1
102
RTVSPropertyOp8
 70
     1
102
RTVSPropertyOp9
 70
     1
102
RTVSPropertyOp10
 70
     1
102
RTVSPropertyOp11
 70
     1
102
RTVSPropertyOp12
 70
     1
102
RTVSPropertyOp13
 70
     1
102
RTVSPropertyOp14
 70
     1
102
RTVSPropertyOp15
 70
     1
102
RTVSPropertyOp16
 70
     1
102
RTVSPropertyOp17
 70
     1
102
RTVSPropertyOp18
 70
     1
102
RTVSPropertyOp19
 70
     1
102
RTVSPropertyOp20
 70
     1
102
RTVSPropertyOp21
 70
     1
102
RTVSPropertyOp22
 70
     1
102
RTVSPropertyOp23
 70
     1
102
RTVSPropertyOp24
 70
     1
102
RTVSPropertyOp25
 70
     1
102
RTVSPropertyOp26
 70
     1
102
RTVSPropertyOp27
 70
     1
102
RTVSPropertyOp28
 70
     1
102
RTVSPropertyOp29
 70
     1
102
RTVSPropertyOp30
 70
     1
102
RTVSPropertyOp31
 70
     1
102
RTVSPropertyOp32
 70
     1
  0
XRECORD
  5
7A9
102
{ACAD_REACTORS
330
7A8
102
}
330
7A8
100
AcDbXrecord
280
     1
102
RTVSPropertyOp0
 70
     1
102
RTVSPropertyOp1
 70
     1
102
RTVSPropertyOp2
 70
     1
102
RTVSPropertyOp3
 70
     1
102
RTVSPropertyOp4
 70
     1
102
RTVSPropertyOp5
 70
     1
102
RTVSPropertyOp6
 70
     1
102
RTVSPropertyOp7
 70
     1
102
RTVSPropertyOp8
 70
     1
102
RTVSPropertyOp9
 70
     1
102
RTVSPropertyOp10
 70
     1
102
RTVSPropertyOp11
 70
     1
102
RTVSPropertyOp12
 70
     1
102
RTVSPropertyOp13
 70
     1
102
RTVSPropertyOp14
 70
     1
102
RTVSPropertyOp15
 70
     1
102
RTVSPropertyOp16
 70
     1
102
RTVSPropertyOp17
 70
     1
102
RTVSPropertyOp18
 70
     1
102
RTVSPropertyOp19
 70
     1
102
RTVSPropertyOp20
 70
     1
102
RTVSPropertyOp21
 70
     1
102
RTVSPropertyOp22
 70
     1
102
RTVSPropertyOp23
 70
     1
102
RTVSPropertyOp24
 70
     1
102
RTVSPropertyOp25
 70
     1
102
RTVSPropertyOp26
 70
     1
102
RTVSPropertyOp27
 70
     1
102
RTVSPropertyOp28
 70
     1
102
RTVSPropertyOp29
 70
     1
102
RTVSPropertyOp30
 70
     1
102
RTVSPropertyOp31
 70
     1
102
RTVSPropertyOp32
 70
     1
  0
XRECORD
  5
7B1
102
{ACAD_REACTORS
330
7B0
102
}
330
7B0
100
AcDbXrecord
280
     1
102
RTVSPropertyOp0
 70
     1
102
RTVSPropertyOp1
 70
     1
102
RTVSPropertyOp2
 70
     1
102
RTVSPropertyOp3
 70
     1
102
RTVSPropertyOp4
 70
     1
102
RTVSPropertyOp5
 70
     1
102
RTVSPropertyOp6
 70
     1
102
RTVSPropertyOp7
 70
     1
102
RTVSPropertyOp8
 70
     1
102
RTVSPropertyOp9
 70
     1
102
RTVSPropertyOp10
 70
     1
102
RTVSPropertyOp11
 70
     1
102
RTVSPropertyOp12
 70
     1
102
RTVSPropertyOp13
 70
     1
102
RTVSPropertyOp14
 70
     1
102
RTVSPropertyOp15
 70
     1
102
RTVSPropertyOp16
 70
     1
102
RTVSPropertyOp17
 70
     1
102
RTVSPropertyOp18
 70
     1
102
RTVSPropertyOp19
 70
     1
102
RTVSPropertyOp20
 70
     1
102
RTVSPropertyOp21
 70
     1
102
RTVSPropertyOp22
 70
     1
102
RTVSPropertyOp23
 70
     1
102
RTVSPropertyOp24
 70
     1
102
RTVSPropertyOp25
 70
     1
102
RTVSPropertyOp26
 70
     1
102
RTVSPropertyOp27
 70
     1
102
RTVSPropertyOp28
 70
     1
102
RTVSPropertyOp29
 70
     1
102
RTVSPropertyOp30
 70
     1
102
RTVSPropertyOp31
 70
     1
102
RTVSPropertyOp32
 70
     1
  0
XRECORD
  5
7B9
102
{ACAD_REACTORS
330
7B8
102
}
330
7B8
100
AcDbXrecord
280
     1
102
RTVSPropertyOp0
 70
     1
102
RTVSPropertyOp1
 70
     1
102
RTVSPropertyOp2
 70
     1
102
RTVSPropertyOp3
 70
     1
102
RTVSPropertyOp4
 70
     1
102
RTVSPropertyOp5
 70
     1
102
RTVSPropertyOp6
 70
     1
102
RTVSPropertyOp7
 70
     1
102
RTVSPropertyOp8
 70
     1
102
RTVSPropertyOp9
 70
     1
102
RTVSPropertyOp10
 70
     1
102
RTVSPropertyOp11
 70
     1
102
RTVSPropertyOp12
 70
     1
102
RTVSPropertyOp13
 70
     1
102
RTVSPropertyOp14
 70
     1
102
RTVSPropertyOp15
 70
     1
102
RTVSPropertyOp16
 70
     1
102
RTVSPropertyOp17
 70
     1
102
RTVSPropertyOp18
 70
     1
102
RTVSPropertyOp19
 70
     1
102
RTVSPropertyOp20
 70
     1
102
RTVSPropertyOp21
 70
     1
102
RTVSPropertyOp22
 70
     1
102
RTVSPropertyOp23
 70
     1
102
RTVSPropertyOp24
 70
     1
102
RTVSPropertyOp25
 70
     1
102
RTVSPropertyOp26
 70
     1
102
RTVSPropertyOp27
 70
     1
102
RTVSPropertyOp28
 70
     1
102
RTVSPropertyOp29
 70
     1
102
RTVSPropertyOp30
 70
     1
102
RTVSPropertyOp31
 70
     1
102
RTVSPropertyOp32
 70
     1
  0
XRECORD
  5
7AD
102
{ACAD_REACTORS
330
7AC
102
}
330
7AC
100
AcDbXrecord
280
     1
102
RTVSPropertyOp0
 70
     1
102
RTVSPropertyOp1
 70
     1
102
RTVSPropertyOp2
 70
     1
102
RTVSPropertyOp3
 70
     1
102
RTVSPropertyOp4
 70
     1
102
RTVSPropertyOp5
 70
     1
102
RTVSPropertyOp6
 70
     1
102
RTVSPropertyOp7
 70
     1
102
RTVSPropertyOp8
 70
     1
102
RTVSPropertyOp9
 70
     1
102
RTVSPropertyOp10
 70
     1
102
RTVSPropertyOp11
 70
     1
102
RTVSPropertyOp12
 70
     1
102
RTVSPropertyOp13
 70
     1
102
RTVSPropertyOp14
 70
     1
102
RTVSPropertyOp15
 70
     1
102
RTVSPropertyOp16
 70
     1
102
RTVSPropertyOp17
 70
     1
102
RTVSPropertyOp18
 70
     1
102
RTVSPropertyOp19
 70
     1
102
RTVSPropertyOp20
 70
     1
102
RTVSPropertyOp21
 70
     1
102
RTVSPropertyOp22
 70
     1
102
RTVSPropertyOp23
 70
     1
102
RTVSPropertyOp24
 70
     1
102
RTVSPropertyOp25
 70
     1
102
RTVSPropertyOp26
 70
     1
102
RTVSPropertyOp27
 70
     1
102
RTVSPropertyOp28
 70
     1
102
RTVSPropertyOp29
 70
     1
102
RTVSPropertyOp30
 70
     1
102
RTVSPropertyOp31
 70
     1
102
RTVSPropertyOp32
 70
     1
  0
XRECORD
  5
7AF
102
{ACAD_REACTORS
330
7AE
102
}
330
7AE
100
AcDbXrecord
280
     1
102
RTVSPropertyOp0
 70
     1
102
RTVSPropertyOp1
 70
     1
102
RTVSPropertyOp2
 70
     1
102
RTVSPropertyOp3
 70
     1
102
RTVSPropertyOp4
 70
     1
102
RTVSPropertyOp5
 70
     1
102
RTVSPropertyOp6
 70
     1
102
RTVSPropertyOp7
 70
     1
102
RTVSPropertyOp8
 70
     1
102
RTVSPropertyOp9
 70
     1
102
RTVSPropertyOp10
 70
     1
102
RTVSPropertyOp11
 70
     1
102
RTVSPropertyOp12
 70
     1
102
RTVSPropertyOp13
 70
     1
102
RTVSPropertyOp14
 70
     1
102
RTVSPropertyOp15
 70
     1
102
RTVSPropertyOp16
 70
     1
102
RTVSPropertyOp17
 70
     1
102
RTVSPropertyOp18
 70
     1
102
RTVSPropertyOp19
 70
     1
102
RTVSPropertyOp20
 70
     1
102
RTVSPropertyOp21
 70
     1
102
RTVSPropertyOp22
 70
     1
102
RTVSPropertyOp23
 70
     1
102
RTVSPropertyOp24
 70
     1
102
RTVSPropertyOp25
 70
     1
102
RTVSPropertyOp26
 70
     1
102
RTVSPropertyOp27
 70
     1
102
RTVSPropertyOp28
 70
     1
102
RTVSPropertyOp29
 70
     1
102
RTVSPropertyOp30
 70
     1
102
RTVSPropertyOp31
 70
     1
102
RTVSPropertyOp32
 70
     1
  0
XRECORD
  5
7B7
102
{ACAD_REACTORS
330
7B6
102
}
330
7B6
100
AcDbXrecord
280
     1
102
RTVSPropertyOp0
 70
     1
102
RTVSPropertyOp1
 70
     1
102
RTVSPropertyOp2
 70
     1
102
RTVSPropertyOp3
 70
     1
102
RTVSPropertyOp4
 70
     1
102
RTVSPropertyOp5
 70
     1
102
RTVSPropertyOp6
 70
     1
102
RTVSPropertyOp7
 70
     1
102
RTVSPropertyOp8
 70
     1
102
RTVSPropertyOp9
 70
     1
102
RTVSPropertyOp10
 70
     1
102
RTVSPropertyOp11
 70
     1
102
RTVSPropertyOp12
 70
     1
102
RTVSPropertyOp13
 70
     1
102
RTVSPropertyOp14
 70
     1
102
RTVSPropertyOp15
 70
     1
102
RTVSPropertyOp16
 70
     1
102
RTVSPropertyOp17
 70
     1
102
RTVSPropertyOp18
 70
     1
102
RTVSPropertyOp19
 70
     1
102
RTVSPropertyOp20
 70
     1
102
RTVSPropertyOp21
 70
     1
102
RTVSPropertyOp22
 70
     1
102
RTVSPropertyOp23
 70
     1
102
RTVSPropertyOp24
 70
     1
102
RTVSPropertyOp25
 70
     1
102
RTVSPropertyOp26
 70
     1
102
RTVSPropertyOp27
 70
     1
102
RTVSPropertyOp28
 70
     1
102
RTVSPropertyOp29
 70
     1
102
RTVSPropertyOp30
 70
     1
102
RTVSPropertyOp31
 70
     1
102
RTVSPropertyOp32
 70
     1
  0
XRECORD
  5
79B
102
{ACAD_REACTORS
330
79A
102
}
330
79A
100
AcDbXrecord
280
     1
102
RTVSPropertyOp0
 70
     1
102
RTVSPropertyOp1
 70
     1
102
RTVSPropertyOp2
 70
     1
102
RTVSPropertyOp3
 70
     1
102
RTVSPropertyOp4
 70
     1
102
RTVSPropertyOp5
 70
     1
102
RTVSPropertyOp6
 70
     1
102
RTVSPropertyOp7
 70
     1
102
RTVSPropertyOp8
 70
     1
102
RTVSPropertyOp9
 70
     1
102
RTVSPropertyOp10
 70
     1
102
RTVSPropertyOp11
 70
     1
102
RTVSPropertyOp12
 70
     1
102
RTVSPropertyOp13
 70
     1
102
RTVSPropertyOp14
 70
     1
102
RTVSPropertyOp15
 70
     1
102
RTVSPropertyOp16
 70
     1
102
RTVSPropertyOp17
 70
     1
102
RTVSPropertyOp18
 70
     1
102
RTVSPropertyOp19
 70
     1
102
RTVSPropertyOp20
 70
     1
102
RTVSPropertyOp21
 70
     1
102
RTVSPropertyOp22
 70
     1
102
RTVSPropertyOp23
 70
     1
102
RTVSPropertyOp24
 70
     1
102
RTVSPropertyOp25
 70
     1
102
RTVSPropertyOp26
 70
     1
102
RTVSPropertyOp27
 70
     1
102
RTVSPropertyOp28
 70
     1
102
RTVSPropertyOp29
 70
     1
102
RTVSPropertyOp30
 70
     1
102
RTVSPropertyOp31
 70
     1
102
RTVSPropertyOp32
 70
     1
  0
XRECORD
  5
79D
102
{ACAD_REACTORS
330
79C
102
}
330
79C
100
AcDbXrecord
280
     1
102
RTVSPropertyOp0
 70
     1
102
RTVSPropertyOp1
 70
     1
102
RTVSPropertyOp2
 70
     1
102
RTVSPropertyOp3
 70
     1
102
RTVSPropertyOp4
 70
     1
102
RTVSPropertyOp5
 70
     1
102
RTVSPropertyOp6
 70
     1
102
RTVSPropertyOp7
 70
     1
102
RTVSPropertyOp8
 70
     1
102
RTVSPropertyOp9
 70
     1
102
RTVSPropertyOp10
 70
     1
102
RTVSPropertyOp11
 70
     1
102
RTVSPropertyOp12
 70
     1
102
RTVSPropertyOp13
 70
     1
102
RTVSPropertyOp14
 70
     1
102
RTVSPropertyOp15
 70
     1
102
RTVSPropertyOp16
 70
     1
102
RTVSPropertyOp17
 70
     1
102
RTVSPropertyOp18
 70
     1
102
RTVSPropertyOp19
 70
     1
102
RTVSPropertyOp20
 70
     1
102
RTVSPropertyOp21
 70
     1
102
RTVSPropertyOp22
 70
     1
102
RTVSPropertyOp23
 70
     1
102
RTVSPropertyOp24
 70
     1
102
RTVSPropertyOp25
 70
     1
102
RTVSPropertyOp26
 70
     1
102
RTVSPropertyOp27
 70
     1
102
RTVSPropertyOp28
 70
     1
102
RTVSPropertyOp29
 70
     1
102
RTVSPropertyOp30
 70
     1
102
RTVSPropertyOp31
 70
     1
102
RTVSPropertyOp32
 70
     1
  0
XRECORD
  5
79F
102
{ACAD_REACTORS
330
79E
102
}
330
79E
100
AcDbXrecord
280
     1
102
RTVSPropertyOp0
 70
     1
102
RTVSPropertyOp1
 70
     1
102
RTVSPropertyOp2
 70
     1
102
RTVSPropertyOp3
 70
     1
102
RTVSPropertyOp4
 70
     1
102
RTVSPropertyOp5
 70
     1
102
RTVSPropertyOp6
 70
     1
102
RTVSPropertyOp7
 70
     1
102
RTVSPropertyOp8
 70
     1
102
RTVSPropertyOp9
 70
     1
102
RTVSPropertyOp10
 70
     1
102
RTVSPropertyOp11
 70
     1
102
RTVSPropertyOp12
 70
     1
102
RTVSPropertyOp13
 70
     1
102
RTVSPropertyOp14
 70
     1
102
RTVSPropertyOp15
 70
     1
102
RTVSPropertyOp16
 70
     1
102
RTVSPropertyOp17
 70
     1
102
RTVSPropertyOp18
 70
     1
102
RTVSPropertyOp19
 70
     1
102
RTVSPropertyOp20
 70
     1
102
RTVSPropertyOp21
 70
     1
102
RTVSPropertyOp22
 70
     1
102
RTVSPropertyOp23
 70
     1
102
RTVSPropertyOp24
 70
     1
102
RTVSPropertyOp25
 70
     1
102
RTVSPropertyOp26
 70
     1
102
RTVSPropertyOp27
 70
     1
102
RTVSPropertyOp28
 70
     1
102
RTVSPropertyOp29
 70
     1
102
RTVSPropertyOp30
 70
     1
102
RTVSPropertyOp31
 70
     1
102
RTVSPropertyOp32
 70
     1
  0
XRECORD
  5
7A1
102
{ACAD_REACTORS
330
7A0
102
}
330
7A0
100
AcDbXrecord
280
     1
102
RTVSPropertyOp0
 70
     1
102
RTVSPropertyOp1
 70
     1
102
RTVSPropertyOp2
 70
     1
102
RTVSPropertyOp3
 70
     1
102
RTVSPropertyOp4
 70
     1
102
RTVSPropertyOp5
 70
     1
102
RTVSPropertyOp6
 70
     1
102
RTVSPropertyOp7
 70
     1
102
RTVSPropertyOp8
 70
     1
102
RTVSPropertyOp9
 70
     1
102
RTVSPropertyOp10
 70
     1
102
RTVSPropertyOp11
 70
     1
102
RTVSPropertyOp12
 70
     1
102
RTVSPropertyOp13
 70
     1
102
RTVSPropertyOp14
 70
     1
102
RTVSPropertyOp15
 70
     1
102
RTVSPropertyOp16
 70
     1
102
RTVSPropertyOp17
 70
     1
102
RTVSPropertyOp18
 70
     1
102
RTVSPropertyOp19
 70
     1
102
RTVSPropertyOp20
 70
     1
102
RTVSPropertyOp21
 70
     1
102
RTVSPropertyOp22
 70
     1
102
RTVSPropertyOp23
 70
     1
102
RTVSPropertyOp24
 70
     1
102
RTVSPropertyOp25
 70
     1
102
RTVSPropertyOp26
 70
     1
102
RTVSPropertyOp27
 70
     1
102
RTVSPropertyOp28
 70
     1
102
RTVSPropertyOp29
 70
     1
102
RTVSPropertyOp30
 70
     1
102
RTVSPropertyOp31
 70
     1
102
RTVSPropertyOp32
 70
     1
  0
XRECORD
  5
7B5
102
{ACAD_REACTORS
330
7B4
102
}
330
7B4
100
AcDbXrecord
280
     1
102
RTVSPropertyOp0
 70
     1
102
RTVSPropertyOp1
 70
     1
102
RTVSPropertyOp2
 70
     1
102
RTVSPropertyOp3
 70
     1
102
RTVSPropertyOp4
 70
     1
102
RTVSPropertyOp5
 70
     1
102
RTVSPropertyOp6
 70
     1
102
RTVSPropertyOp7
 70
     1
102
RTVSPropertyOp8
 70
     1
102
RTVSPropertyOp9
 70
     1
102
RTVSPropertyOp10
 70
     1
102
RTVSPropertyOp11
 70
     1
102
RTVSPropertyOp12
 70
     1
102
RTVSPropertyOp13
 70
     1
102
RTVSPropertyOp14
 70
     1
102
RTVSPropertyOp15
 70
     1
102
RTVSPropertyOp16
 70
     1
102
RTVSPropertyOp17
 70
     1
102
RTVSPropertyOp18
 70
     1
102
RTVSPropertyOp19
 70
     1
102
RTVSPropertyOp20
 70
     1
102
RTVSPropertyOp21
 70
     1
102
RTVSPropertyOp22
 70
     1
102
RTVSPropertyOp23
 70
     1
102
RTVSPropertyOp24
 70
     1
102
RTVSPropertyOp25
 70
     1
102
RTVSPropertyOp26
 70
     1
102
RTVSPropertyOp27
 70
     1
102
RTVSPropertyOp28
 70
     1
102
RTVSPropertyOp29
 70
     1
102
RTVSPropertyOp30
 70
     1
102
RTVSPropertyOp31
 70
     1
102
RTVSPropertyOp32
 70
     1
  0
XRECORD
  5
7AB
102
{ACAD_REACTORS
330
7AA
102
}
330
7AA
100
AcDbXrecord
280
     1
102
RTVSPropertyOp0
 70
     1
102
RTVSPropertyOp1
 70
     1
102
RTVSPropertyOp2
 70
     1
102
RTVSPropertyOp3
 70
     1
102
RTVSPropertyOp4
 70
     1
102
RTVSPropertyOp5
 70
     1
102
RTVSPropertyOp6
 70
     1
102
RTVSPropertyOp7
 70
     1
102
RTVSPropertyOp8
 70
     1
102
RTVSPropertyOp9
 70
     1
102
RTVSPropertyOp10
 70
     1
102
RTVSPropertyOp11
 70
     1
102
RTVSPropertyOp12
 70
     1
102
RTVSPropertyOp13
 70
     1
102
RTVSPropertyOp14
 70
     1
102
RTVSPropertyOp15
 70
     1
102
RTVSPropertyOp16
 70
     1
102
RTVSPropertyOp17
 70
     1
102
RTVSPropertyOp18
 70
     1
102
RTVSPropertyOp19
 70
     1
102
RTVSPropertyOp20
 70
     1
102
RTVSPropertyOp21
 70
     1
102
RTVSPropertyOp22
 70
     1
102
RTVSPropertyOp23
 70
     1
102
RTVSPropertyOp24
 70
     1
102
RTVSPropertyOp25
 70
     1
102
RTVSPropertyOp26
 70
     1
102
RTVSPropertyOp27
 70
     1
102
RTVSPropertyOp28
 70
     1
102
RTVSPropertyOp29
 70
     1
102
RTVSPropertyOp30
 70
     1
102
RTVSPropertyOp31
 70
     1
102
RTVSPropertyOp32
 70
     1
  0
XRECORD
  5
7B3
102
{ACAD_REACTORS
330
7B2
102
}
330
7B2
100
AcDbXrecord
280
     1
102
RTVSPropertyOp0
 70
     1
102
RTVSPropertyOp1
 70
     1
102
RTVSPropertyOp2
 70
     1
102
RTVSPropertyOp3
 70
     1
102
RTVSPropertyOp4
 70
     1
102
RTVSPropertyOp5
 70
     1
102
RTVSPropertyOp6
 70
     1
102
RTVSPropertyOp7
 70
     1
102
RTVSPropertyOp8
 70
     1
102
RTVSPropertyOp9
 70
     1
102
RTVSPropertyOp10
 70
     1
102
RTVSPropertyOp11
 70
     1
102
RTVSPropertyOp12
 70
     1
102
RTVSPropertyOp13
 70
     1
102
RTVSPropertyOp14
 70
     1
102
RTVSPropertyOp15
 70
     1
102
RTVSPropertyOp16
 70
     1
102
RTVSPropertyOp17
 70
     1
102
RTVSPropertyOp18
 70
     1
102
RTVSPropertyOp19
 70
     1
102
RTVSPropertyOp20
 70
     1
102
RTVSPropertyOp21
 70
     1
102
RTVSPropertyOp22
 70
     1
102
RTVSPropertyOp23
 70
     1
102
RTVSPropertyOp24
 70
     1
102
RTVSPropertyOp25
 70
     1
102
RTVSPropertyOp26
 70
     1
102
RTVSPropertyOp27
 70
     1
102
RTVSPropertyOp28
 70
     1
102
RTVSPropertyOp29
 70
     1
102
RTVSPropertyOp30
 70
     1
102
RTVSPropertyOp31
 70
     1
102
RTVSPropertyOp32
 70
     1
  0
ENDSEC
  0
EOF
